<?xml version="1.0" standalone="no"?>
<!DOCTYPE svg PUBLIC "-//W3C//DTD SVG 1.1//EN" "http://www.w3.org/Graphics/SVG/1.1/DTD/svg11.dtd" >
<svg xmlns="http://www.w3.org/2000/svg">
<metadata></metadata>
<defs>
<font id="vegan-sans-medium" horiz-adv-x="600" >
<font-face units-per-em="1000" ascent="800" descent="-200" />
<missing-glyph horiz-adv-x="300" />
<glyph unicode="fb" horiz-adv-x="951" d="M20 442v77h87v44q0 96 70.5 146t181.5 50q106 0 187 -29v-264q69 69 160 69q86 0 142 -72t56 -203q0 -130 -66 -202.5t-158 -72.5q-83 0 -134 61v-46h-110v674q-38 9 -77 9q-62 0 -102 -29.5t-40 -89.5v-45h114v-77h-114v-442h-110v442h-87zM546 116q47 -47 114 -47 q54 0 92 48.5t38 142.5q0 95 -34 143t-88 48q-71 0 -122 -51v-284z" />
<glyph unicode="ff" horiz-adv-x="703" d="M20 442v77h87v81q0 79 43.5 119t123.5 40q54 0 87 -17v-71q-41 9 -65 9q-79 0 -79 -79v-82h219v81q0 79 43.5 119t123.5 40q54 0 87 -17v-71q-41 9 -65 9q-79 0 -79 -79v-82h144v-77h-144v-442h-110v442h-219v-442h-110v442h-87z" />
<glyph unicode="fh" horiz-adv-x="961" d="M20 442v77h87v44q0 96 70.5 146t181.5 50q106 0 187 -29v-277q80 82 181 82q70 0 115 -41t45 -129v-365h-110v342q0 104 -97 104q-35 0 -72.5 -17.5t-61.5 -41.5v-387h-110v674q-38 9 -77 9q-62 0 -102 -29.5t-40 -89.5v-45h114v-77h-114v-442h-110v442h-87z" />
<glyph unicode="fi" horiz-adv-x="620" d="M20 442v77h87v81q0 79 43.5 119t123.5 40q51 0 84 -17v-71q-41 9 -62 9q-79 0 -79 -79v-82h329v-519h-110v442h-219v-442h-110v442h-87zM422 662q0 29 20 49t49 20t49 -20t20 -49t-20 -48.5t-49 -19.5t-49 19.5t-20 48.5z" />
<glyph unicode="fj" horiz-adv-x="620" d="M20 442v77h87v81q0 79 43.5 119t123.5 40q51 0 84 -17v-71q-41 9 -62 9q-79 0 -79 -79v-82h329v-727h-110v650h-219v-442h-110v442h-87zM422 662q0 29 20 49t49 20t49 -20t20 -49t-20 -48.5t-49 -19.5t-49 19.5t-20 48.5z" />
<glyph unicode="fk" horiz-adv-x="887" d="M20 442v77h87v44q0 96 70.5 146t181.5 50q106 0 187 -29v-448l199 237h116l-206 -232l226 -287h-133l-202 267v-267h-110v675q-38 9 -77 9q-62 0 -102 -30t-40 -90v-45h114v-77h-114v-442h-110v442h-87z" />
<glyph unicode="fl" horiz-adv-x="620" d="M20 442v77h87v44q0 96 70.5 146t181.5 50q106 0 187 -29v-730h-110v674q-38 9 -77 9q-62 0 -102 -29.5t-40 -89.5v-45h114v-77h-114v-442h-110v442h-87z" />
<glyph unicode="ft" horiz-adv-x="727" d="M20 442v77h87v81q0 79 43.5 119t123.5 40q54 0 87 -17v-71q-41 9 -65 9q-79 0 -79 -79v-82h219v141h110v-141h141v-77h-141v-292q0 -86 68 -86q28 0 80 15v-71q-51 -23 -116 -23q-64 0 -103 36t-39 108v313h-219v-442h-110v442h-87z" />
<glyph unicode="ffb" horiz-adv-x="1280" d="M20 442v77h87v81q0 79 43.5 119t123.5 40q54 0 87 -17v-71q-41 9 -65 9q-79 0 -79 -79v-82h219v44q0 96 70.5 146t181.5 50q106 0 187 -29v-264q69 69 160 69q86 0 142 -72t56 -203q0 -130 -66 -202.5t-158 -72.5q-83 0 -134 61v-46h-110v674q-37 9 -77 9 q-62 0 -102 -29.5t-40 -89.5v-45h114v-77h-114v-442h-110v442h-219v-442h-110v442h-87zM875 116q47 -47 114 -47q54 0 92 48.5t38 142.5q0 95 -34 143t-88 48q-71 0 -122 -51v-284z" />
<glyph unicode="ffh" horiz-adv-x="1290" d="M20 442v77h87v81q0 79 43.5 119t123.5 40q54 0 87 -17v-71q-41 9 -65 9q-79 0 -79 -79v-82h219v44q0 96 70.5 146t181.5 50q106 0 187 -29v-277q80 82 181 82q70 0 115 -41t45 -129v-365h-110v342q0 104 -97 104q-35 0 -72.5 -17.5t-61.5 -41.5v-387h-110v674 q-37 9 -77 9q-62 0 -102 -29.5t-40 -89.5v-45h114v-77h-114v-442h-110v442h-219v-442h-110v442h-87z" />
<glyph unicode="ffi" horiz-adv-x="949" d="M20 442v77h87v81q0 79 43.5 119t123.5 40q54 0 87 -17v-71q-41 9 -65 9q-79 0 -79 -79v-82h219v81q0 79 43.5 119t123.5 40q51 0 84 -17v-71q-41 9 -62 9q-79 0 -79 -79v-82h329v-519h-110v442h-219v-442h-110v442h-219v-442h-110v442h-87zM751 662q0 29 20 49t49 20 t49 -20t20 -49t-20 -48.5t-49 -19.5t-49 19.5t-20 48.5z" />
<glyph unicode="ffj" horiz-adv-x="949" d="M20 442v77h87v81q0 79 43.5 119t123.5 40q54 0 87 -17v-71q-41 9 -65 9q-79 0 -79 -79v-82h219v81q0 79 43.5 119t123.5 40q51 0 84 -17v-71q-41 9 -62 9q-79 0 -79 -79v-82h329v-727h-110v650h-219v-442h-110v442h-219v-442h-110v442h-87zM751 662q0 29 20 49t49 20 t49 -20t20 -49t-20 -48.5t-49 -19.5t-49 19.5t-20 48.5z" />
<glyph unicode="ffk" horiz-adv-x="1216" d="M20 442v77h87v81q0 79 43.5 119t123.5 40q54 0 87 -17v-71q-41 9 -65 9q-79 0 -79 -79v-82h219v44q0 96 70.5 146t181.5 50q106 0 187 -29v-448l199 237h116l-206 -232l226 -287h-133l-202 267v-267h-110v674q-37 9 -77 9q-62 0 -102 -29.5t-40 -89.5v-45h114v-77h-114 v-442h-110v442h-219v-442h-110v442h-87z" />
<glyph unicode="ffl" horiz-adv-x="1006" d="M20 442v77h87v81q0 79 43.5 119t123.5 40q54 0 87 -17v-71q-41 9 -65 9q-79 0 -79 -79v-82h219v44q0 96 70.5 146t181.5 50q106 0 187 -29v-730h-110v672q-40 8 -76 8q-63 0 -103 -28t-40 -88v-45h114v-77h-114v-442h-110v442h-219v-442h-110v442h-87z" />
<glyph unicode="fft" horiz-adv-x="1056" d="M20 442v77h87v81q0 79 43.5 119t123.5 40q54 0 87 -17v-71q-41 9 -65 9q-79 0 -79 -79v-82h219v81q0 79 43.5 119t123.5 40q54 0 87 -17v-71q-41 9 -65 9q-79 0 -79 -79v-82h219v141h110v-141h141v-77h-141v-292q0 -86 68 -86q27 0 80 15v-71q-51 -23 -116 -23 q-64 0 -103 36t-39 108v313h-219v-442h-110v442h-219v-442h-110v442h-87z" />
<glyph unicode="tt" horiz-adv-x="747" d="M20 442v77h87v141h110v-141h239v141h110v-141h141v-77h-141v-292q0 -86 68 -86q28 0 80 15v-71q-51 -23 -116 -23q-64 0 -103 36t-39 108v313h-239v-292q0 -86 68 -86q27 0 80 15v-71q-51 -23 -116 -23q-64 0 -103 36t-39 108v313h-87z" />
<glyph unicode="&#xd;" horiz-adv-x="0" />
<glyph unicode=" "  horiz-adv-x="300" />
<glyph unicode="&#x09;" horiz-adv-x="300" />
<glyph unicode="&#xa0;" horiz-adv-x="300" />
<glyph unicode="!" horiz-adv-x="320" d="M88 57q0 31 20.5 51.5t51.5 20.5t51.5 -20.5t20.5 -51.5t-20.5 -51.5t-51.5 -20.5t-51.5 20.5t-20.5 51.5zM97 700h127l-20 -484h-87z" />
<glyph unicode="&#x22;" horiz-adv-x="370" d="M50 700h108l-16 -265h-77zM212 700h108l-16 -265h-77z" />
<glyph unicode="#" horiz-adv-x="718" d="M41 189v88h113l39 149h-102v88h124l48 186h106l-48 -186h159l48 186h106l-48 -186h91v-88h-113l-39 -149h102v-88h-124l-49 -189h-106l49 189h-159l-49 -189h-106l49 189h-91zM260 277h159l39 149h-159z" />
<glyph unicode="$" horiz-adv-x="613" d="M47 209h121q8 -103 86 -129v237q-44 10 -73.5 21t-61 32t-48 57t-16.5 85q0 81 55 135t144 65v108h106v-109q188 -26 199 -211h-122q-7 96 -77 119v-222q45 -10 75 -20.5t63.5 -31.5t50.5 -56.5t17 -85.5q0 -83 -58.5 -142t-147.5 -73v-108h-106v109q-96 13 -149.5 68.5 t-57.5 151.5zM169 525q0 -43 22 -66.5t63 -36.5v201q-85 -18 -85 -98zM360 77q42 10 67.5 38.5t25.5 72.5q0 78 -93 104v-215z" />
<glyph unicode="%" horiz-adv-x="1006" d="M50 490q0 99 52 159t136 60t136 -60t52 -159t-52 -159t-136 -60t-136 60t-52 159zM149 490q0 -73 24 -110.5t65 -37.5t64.5 37.5t23.5 110.5t-23.5 110t-64.5 37t-65 -37t-24 -110zM222 0l447 700h110l-447 -700h-110zM580 210q0 99 52 159t136 60t136 -60t52 -159 t-52 -159t-136 -60t-136 60t-52 159zM679 210q0 -73 24 -110.5t65 -37.5t64.5 37.5t23.5 110.5t-23.5 110t-64.5 37t-65 -37t-24 -110z" />
<glyph unicode="&#x26;" horiz-adv-x="711" d="M51 187q0 59 30.5 109t82.5 83q-62 77 -62 149q0 79 60 133t151 54q104 0 162 -48.5t64 -143.5h-121q-6 58 -33 81.5t-72 23.5q-42 0 -69.5 -25t-27.5 -67q0 -62 67 -128l201 -197q26 66 26 160h114q0 -128 -64 -234l140 -137h-150l-58 57q-82 -72 -191 -72 q-108 0 -179 54t-71 148zM162 199q0 -57 41 -92t101 -35q74 0 123 47l-206 200q-59 -42 -59 -120z" />
<glyph unicode="'" horiz-adv-x="208" d="M50 700h108l-16 -265h-77z" />
<glyph unicode="(" horiz-adv-x="366" d="M60 350q0 152 58 274.5t142 200.5h105q-83 -83 -132 -213t-49 -262t49 -262t132 -213h-105q-84 78 -142 200.5t-58 274.5z" />
<glyph unicode=")" horiz-adv-x="366" d="M1 -125q83 83 132 213t49 262t-49 262t-132 213h105q84 -78 142 -200.5t58 -274.5t-58 -274.5t-142 -200.5h-105z" />
<glyph unicode="*" horiz-adv-x="511" d="M50 469l146 52l-146 53l56 96l122 -104l-28 154h111l-28 -154l122 104l56 -96l-147 -53l147 -52l-56 -95l-122 103l28 -156h-111l29 156l-123 -103z" />
<glyph unicode="+" horiz-adv-x="566" d="M50 321v89h188v188h89v-188h189v-89h-189v-189h-89v189h-188z" />
<glyph unicode="," horiz-adv-x="223" d="M45 -160l20 274h110l-39 -274h-91z" />
<glyph unicode="-" horiz-adv-x="343" d="M50 232v89h243v-89h-243z" />
<glyph unicode="." horiz-adv-x="240" d="M48 57q0 31 20.5 51.5t51.5 20.5t51.5 -20.5t20.5 -51.5t-20.5 -51.5t-51.5 -20.5t-51.5 20.5t-20.5 51.5z" />
<glyph unicode="/" horiz-adv-x="468" d="M20 -40l315 780h113l-315 -780h-113z" />
<glyph unicode="0" horiz-adv-x="633" d="M47 350q0 167 72.5 266t197.5 99t197 -99t72 -266t-72 -266t-197 -99t-197.5 99t-72.5 266zM169 350q0 -135 40 -205.5t108 -70.5t107.5 70.5t39.5 205.5t-39.5 205.5t-107.5 70.5t-108 -70.5t-40 -205.5z" />
<glyph unicode="1" horiz-adv-x="402" d="M37 510v100l165 90h116v-700h-116v598z" />
<glyph unicode="2" horiz-adv-x="553" d="M47 487q5 111 69 169.5t174 58.5q103 0 163 -52t60 -149q0 -89 -70.5 -181.5t-233.5 -243.5h314v-89h-459v89q174 165 220 216q106 124 110 209q0 57 -28 85.5t-76 28.5q-111 0 -122 -141h-121z" />
<glyph unicode="3" horiz-adv-x="579" d="M44 189h121q11 -117 130 -117q55 0 90.5 35t35.5 94q0 51 -38.5 82.5t-117.5 31.5h-71v89h71q67 0 102.5 33.5t35.5 84.5t-30 78.5t-78 27.5q-108 0 -122 -118h-122q8 97 72 151t172 54q103 0 164.5 -51t61.5 -142q0 -50 -32.5 -95t-88.5 -62q70 -13 104.5 -59.5 t34.5 -104.5q0 -97 -69.5 -156.5t-174.5 -59.5q-120 0 -183 52.5t-68 151.5z" />
<glyph unicode="4" horiz-adv-x="569" d="M36 130v89l202 481h111l-203 -481h186v171h109v-171h94v-89h-94v-130h-109v130h-296z" />
<glyph unicode="5" horiz-adv-x="559" d="M47 175h121q11 -103 116 -103q54 0 85 40.5t31 115.5q0 151 -113 151q-78 0 -122 -63h-100v384h412v-89h-312v-218q26 35 66.5 54.5t84.5 19.5q93 0 148 -60t55 -179q0 -113 -66.5 -178t-168.5 -65q-111 0 -171.5 48.5t-65.5 141.5z" />
<glyph unicode="6" horiz-adv-x="596" d="M47 313q0 193 71.5 297.5t194.5 104.5q97 0 153 -45t64 -126h-121q-8 45 -31 64.5t-65 19.5q-65 0 -100.5 -61t-42.5 -195q31 37 76 59.5t94 22.5q97 0 153 -60t56 -173q0 -106 -71 -171t-174 -65q-125 0 -191 86.5t-66 241.5zM169 297q4 -225 135 -225q58 0 92 40.5 t34 108.5t-29.5 106.5t-89.5 38.5q-42 0 -80 -19t-62 -50z" />
<glyph unicode="7" horiz-adv-x="490" d="M37 611v89h423v-89l-242 -611h-112l248 611h-317z" />
<glyph unicode="8" horiz-adv-x="606" d="M47 187q0 64 36 111.5t100 63.5q-54 20 -85.5 61t-31.5 98q0 91 64.5 142.5t172.5 51.5t172.5 -51.5t64.5 -142.5q0 -57 -31.5 -98t-85.5 -61q64 -16 100 -63.5t36 -111.5q0 -101 -70 -151.5t-186 -50.5t-186 50.5t-70 151.5zM164 190q0 -59 37.5 -88.5t101.5 -29.5 t101.5 29.5t37.5 88.5q0 56 -35 89t-104 33t-104 -33t-35 -89zM182 518q0 -54 30 -85.5t91 -31.5t91 31.5t30 85.5q0 53 -33.5 81.5t-87.5 28.5t-87.5 -28.5t-33.5 -81.5z" />
<glyph unicode="9" horiz-adv-x="596" d="M47 484q0 105 71 168t174 63q125 0 191 -86.5t66 -241.5q0 -195 -69.5 -298.5t-197.5 -103.5q-100 0 -160 48.5t-66 139.5h121q12 -101 105 -101q72 0 106 64t38 210q-30 -37 -75.5 -60t-94.5 -23q-98 0 -153.5 55.5t-55.5 165.5zM165 484q0 -133 120 -133q87 0 141 68 q-7 209 -134 209q-59 0 -93 -38t-34 -106z" />
<glyph unicode=":" horiz-adv-x="240" d="M48 57q0 31 20.5 51.5t51.5 20.5t51.5 -20.5t20.5 -51.5t-20.5 -51.5t-51.5 -20.5t-51.5 20.5t-20.5 51.5zM48 459q0 31 20.5 51.5t51.5 20.5t51.5 -20.5t20.5 -51.5t-20.5 -51.5t-51.5 -20.5t-51.5 20.5t-20.5 51.5z" />
<glyph unicode=";" horiz-adv-x="240" d="M48 -146l20 260h110l-39 -260h-91zM48 459q0 31 20.5 51.5t51.5 20.5t51.5 -20.5t20.5 -51.5t-20.5 -51.5t-51.5 -20.5t-51.5 20.5t-20.5 51.5z" />
<glyph unicode="&#x3c;" horiz-adv-x="566" d="M50 321v92l466 197v-89l-357 -151l357 -151v-95z" />
<glyph unicode="=" horiz-adv-x="566" d="M50 218v89h466v-89h-466zM50 424v89h466v-89h-466z" />
<glyph unicode="&#x3e;" horiz-adv-x="566" d="M50 124v89l357 152l-357 151v94l466 -197v-92z" />
<glyph unicode="?" horiz-adv-x="533" d="M37 515q5 94 68 147t165 53t162.5 -48.5t60.5 -135.5q0 -35 -9.5 -64t-24 -47.5t-33 -35.5t-37.5 -28t-35.5 -25.5t-27.5 -28.5t-14.5 -36.5t3.5 -49.5h-113q-11 56 2.5 93.5t41 58t56.5 39t50.5 49t21.5 75.5q0 47 -28 72t-76 25q-46 0 -76 -28t-36 -85h-121zM188 57 q0 31 20.5 51.5t51.5 20.5t51.5 -20.5t20.5 -51.5t-20.5 -51.5t-51.5 -20.5t-51.5 20.5t-20.5 51.5z" />
<glyph unicode="@" horiz-adv-x="1064" d="M60 183q0 231 156.5 381.5t407.5 150.5q159 0 268 -95.5t109 -250.5q0 -94 -29 -170.5t-75 -121t-96.5 -68.5t-99.5 -24q-42 0 -71.5 18t-35.5 56q-83 -74 -170 -74q-63 0 -105 54.5t-42 153.5q0 159 82 250.5t189 91.5q71 0 112 -60l8 44h110l-70 -399q-5 -29 3.5 -44.5 t26.5 -15.5q63 0 112.5 88.5t49.5 209.5q0 126 -77 205t-218 79q-187 0 -315 -123.5t-128 -319.5q0 -173 93.5 -261t249.5 -88q59 0 132.5 13t116.5 29l-12 -72q-46 -17 -121.5 -30t-142.5 -13q-82 0 -156 25.5t-133 74t-94 128t-35 178.5zM392 204q0 -66 25 -100.5 t60 -34.5q63 0 121 51l50 284q-35 47 -94 47q-65 0 -113.5 -65t-48.5 -182z" />
<glyph unicode="A" horiz-adv-x="644" d="M10 0l246 700h121l257 -700h-125l-63 181h-266l-59 -181h-111zM208 268h208l-61 175l-46 149l-44 -149z" />
<glyph unicode="B" horiz-adv-x="635" d="M84 0v700h227q49 0 91 -9t78.5 -28t57.5 -55t21 -86q0 -54 -31.5 -98t-80.5 -58q64 -11 102.5 -50.5t38.5 -109.5q0 -99 -71.5 -152.5t-183.5 -53.5h-249zM200 87h133q136 0 136 119q0 105 -136 105h-133v-224zM200 396h111q60 0 95 29.5t35 87.5q0 55 -34 77.5t-96 22.5 h-111v-217z" />
<glyph unicode="C" horiz-adv-x="671" d="M47 350q0 166 83 265.5t220 99.5q117 0 190 -62t87 -185h-126q-19 158 -151 158q-80 0 -129.5 -71t-49.5 -205q0 -136 47 -206t132 -70q132 0 151 158h126q-14 -123 -87 -185t-190 -62q-146 0 -224.5 98t-78.5 267z" />
<glyph unicode="D" horiz-adv-x="709" d="M84 0v700h220q163 0 260.5 -93t97.5 -257t-97.5 -257t-260.5 -93h-220zM200 89h104q107 0 171 64t64 197t-64 197t-171 64h-104v-522z" />
<glyph unicode="E" horiz-adv-x="555" d="M84 0v700h418v-89h-302v-198h282v-89h-282v-235h302v-89h-418z" />
<glyph unicode="F" horiz-adv-x="529" d="M84 0v700h408v-89h-292v-219h272v-89h-272v-303h-116z" />
<glyph unicode="G" horiz-adv-x="682" d="M47 350q0 166 83.5 265.5t222.5 99.5q113 0 183.5 -58.5t85.5 -172.5h-126q-20 142 -143 142q-82 0 -132 -71t-50 -205q0 -135 51 -206t130 -71q44 0 86.5 19.5t71.5 48.5v126h-156v86h268v-353h-112v67q-32 -35 -85 -58.5t-105 -23.5q-130 0 -201.5 97.5t-71.5 267.5z " />
<glyph unicode="H" horiz-adv-x="732" d="M84 0v700h116v-287h332v287h116v-700h-116v324h-332v-324h-116z" />
<glyph unicode="I" horiz-adv-x="284" d="M84 0v700h116v-700h-116z" />
<glyph unicode="J" horiz-adv-x="575" d="M30 229h120q3 -85 32 -121t85 -36q119 0 119 120v508h115v-488q0 -113 -68 -170t-166 -57q-230 0 -237 244z" />
<glyph unicode="K" horiz-adv-x="627" d="M84 0v700h116v-327l245 327h120l-250 -322l288 -378h-142l-261 357v-357h-116z" />
<glyph unicode="L" horiz-adv-x="521" d="M84 0v700h116v-611h270v-89h-386z" />
<glyph unicode="M" horiz-adv-x="861" d="M84 0v700h127l225 -545l225 545h116v-700h-110v370l2 129l-184 -459h-106l-192 470l2 -142v-368h-105z" />
<glyph unicode="N" horiz-adv-x="719" d="M84 0v700h117l331 -529l-3 142v387h106v-700h-117l-331 529l3 -142v-387h-106z" />
<glyph unicode="O" horiz-adv-x="741" d="M47 350q0 166 88 265.5t236 99.5t235.5 -99.5t87.5 -265.5t-87.5 -265.5t-235.5 -99.5t-236 99.5t-88 265.5zM171 350q0 -135 54 -205.5t146 -70.5t146 70.5t54 205.5t-54 205.5t-146 70.5t-146 -70.5t-54 -205.5z" />
<glyph unicode="P" horiz-adv-x="601" d="M84 0v700h226q105 0 179.5 -59t74.5 -169t-74.5 -168.5t-179.5 -58.5h-110v-245h-116zM200 332h110q61 0 98.5 35.5t37.5 104.5t-37.5 105t-98.5 36h-110v-281z" />
<glyph unicode="Q" horiz-adv-x="741" d="M47 350q0 166 88 265.5t236 99.5t235.5 -99.5t87.5 -265.5q0 -120 -47 -207t-132 -127l157 -167h-146l-125 137q-10 -1 -30 -1q-148 0 -236 99.5t-88 265.5zM171 350q0 -135 54 -205.5t146 -70.5t146 70.5t54 205.5t-54 205.5t-146 70.5t-146 -70.5t-54 -205.5z" />
<glyph unicode="R" horiz-adv-x="620" d="M84 0v700h221q107 0 180.5 -54t73.5 -162q0 -82 -43 -132.5t-114 -70.5l194 -281h-137l-172 268h-87v-268h-116zM200 353h105q62 0 99 31.5t37 99.5q0 67 -37 98t-99 31h-105v-260z" />
<glyph unicode="S" horiz-adv-x="613" d="M47 209h121q11 -137 147 -137q59 0 98.5 30t39.5 86q0 70 -75 98q-23 9 -94 24l-46.5 10.5t-44 13t-44 18t-36.5 24t-31.5 34t-18.5 44.5t-8 58q0 91 68.5 147t175.5 56q122 0 188 -54.5t72 -160.5h-122q-5 68 -40 98t-98 30q-58 0 -94 -26t-36 -77q0 -22 5 -39t20 -29.5 t24 -19.5t36.5 -15t36.5 -10t43 -9q32 -7 46.5 -10t44.5 -12t45 -17.5t36.5 -24t32.5 -33.5t19 -44.5t8 -58.5q0 -94 -73.5 -156t-177.5 -62q-123 0 -193.5 56.5t-74.5 167.5z" />
<glyph unicode="T" horiz-adv-x="552" d="M30 611v89h492v-89h-188v-611h-116v611h-188z" />
<glyph unicode="U" horiz-adv-x="705" d="M74 230v470h116v-450q0 -88 37.5 -132t123.5 -44q85 0 126.5 41.5t41.5 114.5v470h105v-450q0 -126 -73.5 -195.5t-199.5 -69.5q-127 0 -202 63.5t-75 181.5z" />
<glyph unicode="V" horiz-adv-x="638" d="M10 700h125l150 -431l46 -149l45 149l140 431h112l-243 -700h-121z" />
<glyph unicode="W" horiz-adv-x="929" d="M10 700h124l104 -415l34 -149l35 149l108 415h120l112 -415l36 -152l32 152l95 415h109l-182 -700h-121l-111 401l-37 151l-36 -151l-108 -401h-121z" />
<glyph unicode="X" horiz-adv-x="594" d="M17 0l216 355l-212 345h127l149 -250l144 250h112l-202 -332l226 -368h-126l-164 273l-158 -273h-112z" />
<glyph unicode="Y" horiz-adv-x="599" d="M24 700h125l165 -353l155 353h106l-213 -445v-255h-116v255z" />
<glyph unicode="Z" horiz-adv-x="541" d="M40 0v89l331 522h-324v89h454v-89l-331 -522h331v-89h-461z" />
<glyph unicode="[" horiz-adv-x="355" d="M120 -125v950h215v-76h-99v-798h99v-76h-215z" />
<glyph unicode="\" horiz-adv-x="468" d="M20 740h113l315 -780h-113z" />
<glyph unicode="]" horiz-adv-x="355" d="M20 -49h100v798h-100v76h215v-950h-215v76z" />
<glyph unicode="^" horiz-adv-x="537" d="M50 300l173 400h91l173 -400h-98l-123 292l-125 -292h-91z" />
<glyph unicode="_" horiz-adv-x="500" d="M40 -15h420v-89h-420v89z" />
<glyph unicode="`" horiz-adv-x="339" d="M50 736h137l102 -154h-91z" />
<glyph unicode="a" horiz-adv-x="557" d="M44 123q0 72 60 120t190 48q23 0 79 -4v59q0 112 -92 112q-53 0 -79 -26t-28 -86h-112q1 92 59 140t160 48q39 0 72.5 -8t64 -27t48 -54.5t17.5 -85.5v-359h-110v61q-78 -76 -171 -76q-74 0 -116 37.5t-42 100.5zM155 139q0 -73 94 -73q31 0 65.5 17.5t58.5 42.5v96 q-35 4 -72 4q-146 0 -146 -87z" />
<glyph unicode="b" horiz-adv-x="589" d="M74 0v744h110v-279q69 69 160 69q86 0 142 -72t56 -203q0 -129 -66 -201.5t-158 -72.5q-83 0 -134 61v-46h-110zM184 116q47 -47 114 -47q54 0 92 48t38 142q0 95 -34 143t-88 48q-71 0 -122 -51v-283z" />
<glyph unicode="c" horiz-adv-x="542" d="M47 259q0 125 62 200t174 75q98 0 156 -50t66 -137h-113q-9 60 -34 85.5t-75 25.5q-56 0 -89 -50t-33 -149q0 -198 122 -198q48 0 73.5 25t34.5 83h114q-10 -86 -68 -135t-154 -49q-118 0 -177 73t-59 201z" />
<glyph unicode="d" horiz-adv-x="589" d="M47 259q0 129 66 202t158 73q83 0 134 -61v271h110v-744h-110v54q-69 -69 -159 -69q-87 0 -143 71.5t-56 202.5zM161 259q0 -95 34 -142.5t88 -47.5q71 0 122 51v283q-47 47 -113 47q-55 0 -93 -48.5t-38 -142.5z" />
<glyph unicode="e" horiz-adv-x="553" d="M47 259q0 123 63 199t168 76q115 0 175 -76q52 -66 52 -179q0 -17 -1 -35h-346q4 -183 121 -183q87 0 104 86h113q-8 -72 -66.5 -117t-150.5 -45q-116 0 -174 73t-58 201zM161 313h229q-1 73 -30.5 109.5t-81.5 36.5q-100 0 -117 -146z" />
<glyph unicode="f" horiz-adv-x="374" d="M20 442v77h87v81q0 79 43.5 119t123.5 40q54 0 87 -17v-71q-41 9 -65 9q-79 0 -79 -79v-82h144v-77h-144v-442h-110v442h-87z" />
<glyph unicode="g" horiz-adv-x="589" d="M47 262q0 129 66 200.5t158 71.5q83 0 134 -61v46h110v-516q0 -111 -67.5 -168.5t-163.5 -57.5q-107 0 -165.5 44t-60.5 128h113q2 -51 29.5 -73.5t83.5 -22.5q121 0 121 137v69q-70 -70 -159 -70q-87 0 -143 71t-56 202zM161 262q0 -95 34 -141.5t88 -46.5q71 0 122 51 v278q-47 47 -113 47q-55 0 -93 -47t-38 -141z" />
<glyph unicode="h" horiz-adv-x="599" d="M74 0v744h110v-293q81 83 181 83q70 0 115 -41t45 -130v-363h-110v340q0 105 -97 105q-34 0 -71.5 -17.5t-62.5 -42.5v-385h-110z" />
<glyph unicode="i" horiz-adv-x="258" d="M60 662q0 29 20 49t49 20t49 -20t20 -49t-20 -48.5t-49 -19.5t-49 19.5t-20 48.5zM74 0v519h110v-519h-110z" />
<glyph unicode="j" horiz-adv-x="258" d="M60 662q0 29 20 49t49 20t49 -20t20 -49t-20 -48.5t-49 -19.5t-49 19.5t-20 48.5zM74 -208v727h110v-727h-110z" />
<glyph unicode="k" horiz-adv-x="525" d="M74 0v744h110v-462l199 237h116l-206 -232l226 -287h-133l-202 267v-267h-110z" />
<glyph unicode="l" horiz-adv-x="258" d="M74 0v744h110v-744h-110z" />
<glyph unicode="m" horiz-adv-x="928" d="M74 0v519h110v-68q81 83 178 83q108 0 143 -87q88 87 192 87q70 0 113.5 -41t43.5 -130v-363h-110v340q0 105 -94 105q-34 0 -70 -17.5t-62 -43.5q1 -7 1 -21v-363h-110v340q0 54 -23 79.5t-71 25.5q-34 0 -70 -17.5t-61 -42.5v-385h-110z" />
<glyph unicode="n" horiz-adv-x="599" d="M74 0v519h110v-68q81 83 181 83q70 0 115 -41t45 -130v-363h-110v340q0 105 -97 105q-34 0 -71.5 -17.5t-62.5 -42.5v-385h-110z" />
<glyph unicode="o" horiz-adv-x="589" d="M47 259q0 125 65.5 200t181.5 75t182 -75t66 -200t-66 -199.5t-182 -74.5t-181.5 74.5t-65.5 199.5zM161 259q0 -100 35.5 -149t97.5 -49t97.5 49t35.5 149t-35.5 149.5t-97.5 49.5t-97.5 -49.5t-35.5 -149.5z" />
<glyph unicode="p" horiz-adv-x="589" d="M74 -208v727h110v-54q69 69 160 69q86 0 142 -72t56 -203q0 -129 -66 -201.5t-158 -72.5q-83 0 -134 61v-254h-110zM184 116q47 -47 114 -47q54 0 92 48t38 142q0 95 -34 143t-88 48q-71 0 -122 -51v-283z" />
<glyph unicode="q" horiz-adv-x="589" d="M47 259q0 129 66 202t158 73q83 0 134 -61v46h110v-727h-110v262q-69 -69 -159 -69q-87 0 -143 71.5t-56 202.5zM161 259q0 -95 34 -142.5t88 -47.5q71 0 122 51v283q-47 47 -113 47q-55 0 -93 -48.5t-38 -142.5z" />
<glyph unicode="r" horiz-adv-x="416" d="M74 0v519h110v-92q29 51 67.5 79t79.5 28q36 0 62 -24v-93q-38 16 -71 16q-42 0 -79.5 -25t-58.5 -61v-347h-110z" />
<glyph unicode="s" horiz-adv-x="512" d="M44 150h111q2 -45 28 -68t83 -23q45 0 73 20.5t28 60.5q0 14 -4 24.5t-16 18.5l-19.5 13t-28.5 10t-28 6.5t-32 6.5q-35 7 -54 11t-49.5 16t-46.5 26.5t-29 41t-13 60.5q0 75 56.5 117.5t146.5 42.5q201 0 206 -151h-111q-3 41 -26 59t-72 18q-44 0 -71 -17.5t-27 -52.5 q0 -26 18 -43t35.5 -22t59.5 -13q6 -1 9 -2q33 -6 45.5 -9t42.5 -11t44 -17.5t32 -25t25.5 -38t7.5 -51.5q0 -77 -58 -125t-147 -48q-109 0 -163 43.5t-56 121.5z" />
<glyph unicode="t" horiz-adv-x="398" d="M20 442v77h87v141h110v-141h141v-77h-141v-292q0 -86 68 -86q27 0 80 15v-71q-51 -23 -116 -23q-64 0 -103 36t-39 108v313h-87z" />
<glyph unicode="u" horiz-adv-x="594" d="M74 155v364h110v-341q0 -104 94 -104q34 0 71 17.5t61 42.5v385h110v-519h-110v68q-81 -83 -178 -83q-70 0 -114 40.5t-44 129.5z" />
<glyph unicode="v" horiz-adv-x="523" d="M17 519h121l89 -259l45 -146l44 146l86 259h104l-187 -519h-109z" />
<glyph unicode="w" horiz-adv-x="805" d="M17 519h117l75 -257l38 -146l39 146l72 257h100l77 -257l40 -146l38 146l72 257h103l-166 -519h-104l-74 240l-40 146l-40 -146l-70 -240h-106z" />
<glyph unicode="x" horiz-adv-x="522" d="M17 0l182 265l-173 254h119l114 -173l114 173h107l-165 -241l190 -278h-120l-131 198l-130 -198h-107z" />
<glyph unicode="y" horiz-adv-x="520" d="M17 519h121l84 -238l47 -146l46 146l84 238h104l-267 -727h-102l81 212z" />
<glyph unicode="z" horiz-adv-x="449" d="M37 0v77l256 365h-246v77h365v-77l-257 -365h257v-77h-375z" />
<glyph unicode="{" horiz-adv-x="383" d="M48 309v82q100 0 100 86v184q0 79 49.5 121.5t138.5 42.5h27v-76h-27q-37 0 -54.5 -23.5t-17.5 -54.5v-185q0 -50 -25.5 -87.5t-64.5 -48.5q39 -11 64.5 -49t25.5 -88v-184q0 -31 17.5 -54.5t54.5 -23.5h27v-76h-27q-89 0 -138.5 42.5t-49.5 121.5v184q0 86 -100 86z" />
<glyph unicode="|" horiz-adv-x="286" d="M90 -160v980h106v-980h-106z" />
<glyph unicode="}" horiz-adv-x="383" d="M20 -49h28q37 0 54.5 23.5t17.5 54.5v184q0 50 25.5 88t64.5 49q-39 11 -64.5 48.5t-25.5 87.5v185q0 31 -17.5 54.5t-54.5 23.5h-28v76h28q89 0 138 -42.5t49 -121.5v-184q0 -86 100 -86v-82q-100 0 -100 -86v-184q0 -79 -49 -121.5t-138 -42.5h-28v76z" />
<glyph unicode="~" horiz-adv-x="588" d="M36 326q56 125 158 125q41 0 78.5 -20.5t68 -40.5t55.5 -20q44 0 82 74l74 -38q-56 -126 -157 -126q-41 0 -78.5 20.5t-68.5 41t-56 20.5q-44 0 -82 -75z" />
<glyph unicode="&#xa1;" horiz-adv-x="320" d="M88 435q0 31 20.5 51.5t51.5 20.5t51.5 -20.5t20.5 -51.5t-20.5 -51.5t-51.5 -20.5t-51.5 20.5t-20.5 51.5zM97 -208l20 484h87l20 -484h-127z" />
<glyph unicode="&#xa2;" horiz-adv-x="542" d="M47 259q0 109 47 180.5t134 89.5v110h106v-109q75 -12 119 -60t52 -123h-113q-12 82 -58 102v-378q45 20 57 98h114q-8 -74 -52.5 -121t-118.5 -59v-109h-106v110q-90 16 -135.5 87t-45.5 182zM161 259q0 -147 67 -184v368q-67 -42 -67 -184z" />
<glyph unicode="&#xa3;" horiz-adv-x="578" d="M26 0v89h84v203h-84v88h84v125q0 98 60.5 154t156.5 56q104 0 163 -51t64 -150h-122q-9 114 -105 114q-44 0 -73 -26.5t-29 -83.5v-138h211v-88h-211v-203h311v-89h-510z" />
<glyph unicode="&#xa4;" horiz-adv-x="663" d="M41 128l83 83q-43 63 -43 149q0 85 42 149l-82 82l62 63l82 -83q62 42 146 42t146 -42l82 83l63 -63l-83 -82q43 -63 43 -149t-43 -149l82 -83l-62 -62l-82 82q-63 -41 -146 -41q-82 0 -145 41l-82 -82zM195 360q0 -86 37 -132t99 -46t99.5 46.5t37.5 131.5t-37.5 131 t-99.5 46t-99 -46t-37 -131z" />
<glyph unicode="&#xa5;" horiz-adv-x="599" d="M24 700h125l163 -276l157 276h106l-190 -320h148v-88h-171v-115h171v-88h-171v-89h-116v89h-171v88h171v115h-171v88h147z" />
<glyph unicode="&#xa6;" horiz-adv-x="286" d="M90 -160v455h106v-455h-106zM90 420v400h106v-400h-106z" />
<glyph unicode="&#xa7;" horiz-adv-x="622" d="M47 343q0 79 81 137q-64 43 -64 133q0 87 68.5 139.5t175.5 52.5q121 0 187 -54.5t72 -160.5h-121q-6 68 -40.5 98t-97.5 30q-59 0 -94.5 -23t-35.5 -69q0 -24 9 -41t21.5 -27t36 -17.5t42 -10.5t49.5 -7q45 -5 68.5 -9t61.5 -15.5t58 -27.5t35.5 -45.5t15.5 -69.5 q0 -78 -81 -136q64 -44 64 -133q0 -87 -68.5 -139.5t-175.5 -52.5q-121 0 -187 54.5t-73 159.5h122q11 -127 138 -127q59 0 94.5 23t35.5 69q0 24 -9 41t-21.5 27t-36 17.5t-42 10.5t-49.5 7q-45 5 -68.5 9t-61.5 15.5t-58 27.5t-35.5 45t-15.5 69zM155 365q0 -49 37 -67 t112 -26q82 -10 124 -23q17 15 28 39.5t11 46.5q0 26 -11 43.5t-34.5 27t-45 14t-58.5 8.5q-81 10 -124 22q-17 -14 -28 -38.5t-11 -46.5z" />
<glyph unicode="&#xa8;" horiz-adv-x="431" d="M50 662q0 28 19.5 47.5t47.5 19.5t48 -19.5t20 -47.5t-20 -47.5t-48 -19.5t-47.5 19.5t-19.5 47.5zM246 662q0 28 19.5 47.5t47.5 19.5t48 -19.5t20 -47.5t-20 -47.5t-48 -19.5t-47.5 19.5t-19.5 47.5z" />
<glyph unicode="&#xa9;" horiz-adv-x="830" d="M50 350q0 152 105 258.5t260 106.5t260 -106.5t105 -258.5t-105 -258.5t-260 -106.5t-260 106.5t-105 258.5zM125 350q0 -124 84 -210.5t206 -86.5t206 86.5t84 210.5t-84 210.5t-206 86.5t-206 -86.5t-84 -210.5zM230 350q0 97 50.5 155.5t131.5 58.5q70 0 115 -36 t54 -109h-87q-6 43 -25.5 63t-56.5 20q-44 0 -70.5 -39.5t-26.5 -112.5q0 -74 25 -113.5t72 -39.5q37 0 56.5 20t25.5 63h87q-9 -72 -54 -108.5t-115 -36.5q-87 0 -134.5 57.5t-47.5 157.5z" />
<glyph unicode="&#xaa;" horiz-adv-x="339" d="M24 515q0 96 153 96q21 0 46 -3v30q0 25 -14.5 37.5t-36.5 12.5q-55 0 -57 -51h-83q1 52 39.5 80t100.5 28q53 0 93 -23.5t40 -76.5v-205h-82v30q-45 -39 -101 -39q-48 0 -73 23.5t-25 60.5zM106 523q0 -35 46 -35q38 0 71 28v46q-32 2 -42 2q-75 0 -75 -41z" />
<glyph unicode="&#xab;" horiz-adv-x="568" d="M50 223v97l240 194v-120l-149 -120l149 -119v-126zM278 223v97l240 194v-120l-149 -120l149 -119v-126z" />
<glyph unicode="&#xac;" horiz-adv-x="566" d="M50 321v89h466v-278h-89v189h-377z" />
<glyph unicode="&#xad;" horiz-adv-x="343" d="M50 232v89h243v-89h-243z" />
<glyph unicode="&#xae;" horiz-adv-x="578" d="M50 477q0 100 68.5 169t170.5 69t170.5 -69t68.5 -169t-68.5 -169t-170.5 -69t-170.5 69t-68.5 169zM111 477q0 -76 51 -129.5t127 -53.5q75 0 126.5 53.5t51.5 129.5t-51.5 129.5t-126.5 53.5q-76 0 -127 -53.5t-51 -129.5zM199 353v255h87q40 0 70 -19.5t30 -58.5 q0 -56 -59 -74l69 -103h-64l-62 97h-14v-97h-57zM256 495h30q43 0 43 35q0 34 -43 34h-30v-69z" />
<glyph unicode="&#xaf;" horiz-adv-x="402" d="M50 612v78h302v-78h-302z" />
<glyph unicode="&#xb0;" horiz-adv-x="428" d="M50 551q0 71 47 117.5t117 46.5t117 -46.5t47 -117.5t-47 -117.5t-117 -46.5t-117 46.5t-47 117.5zM129 551q0 -39 23.5 -64t61.5 -25t61.5 25t23.5 64t-23.5 64t-61.5 25t-61.5 -25t-23.5 -64z" />
<glyph unicode="&#xb1;" horiz-adv-x="566" d="M50 0v89h466v-89h-466zM50 342v89h188v188h89v-188h189v-89h-189v-189h-89v189h-188z" />
<glyph unicode="&#xb4;" horiz-adv-x="339" d="M50 582l102 154h137l-148 -154h-91z" />
<glyph unicode="&#xb5;" horiz-adv-x="594" d="M74 -208v727h110v-341q0 -104 94 -104q34 0 71 17.5t61 42.5v385h110v-519h-110v68q-70 -72 -154 -79q-40 -2 -72 9v-206h-110z" />
<glyph unicode="&#xb6;" horiz-adv-x="683" d="M54 502q0 98 68 148t164 50h297v-700h-92v613h-74v-613h-92v305h-39q-96 0 -164 49.5t-68 147.5z" />
<glyph unicode="&#xb7;" horiz-adv-x="244" d="M50 365q0 31 20.5 51.5t51.5 20.5t51.5 -20.5t20.5 -51.5t-20.5 -51.5t-51.5 -20.5t-51.5 20.5t-20.5 51.5z" />
<glyph unicode="&#xb8;" horiz-adv-x="298" d="M50 -178q29 -13 64 -13q20 0 36 10t16 29t-15.5 28.5t-36.5 9.5q-20 0 -40 -6l-21 36l63 84h69l-49 -65q46 3 79 -18.5t33 -65.5q0 -46 -37 -72.5t-89 -26.5q-43 0 -72 14v56z" />
<glyph unicode="&#xba;" horiz-adv-x="344" d="M17 588q0 71 42.5 114t113.5 43q70 0 112 -43t42 -114q0 -70 -42 -113.5t-112 -43.5q-71 0 -113.5 43.5t-42.5 113.5zM101 588q0 -99 72 -99q71 0 71 99q0 100 -71 100q-72 0 -72 -100z" />
<glyph unicode="&#xbb;" horiz-adv-x="568" d="M50 29v120l149 120l-149 119v126l240 -194v-97zM278 29v120l149 120l-149 119v126l240 -194v-97z" />
<glyph unicode="&#xbc;" horiz-adv-x="856" d="M50 564v83l103 53h95v-420h-95v337zM131 0l447 700h110l-447 -700h-110zM463 68v73l131 279h92l-133 -279h99v93h89v-93h64v-73h-64v-68h-89v68h-189z" />
<glyph unicode="&#xbd;" horiz-adv-x="886" d="M50 564v83l103 53h95v-420h-95v337zM131 0l447 700h110l-447 -700h-110zM514 292q3 66 46.5 101.5t115.5 35.5q71 0 114 -33.5t43 -96.5q0 -52 -36.5 -94t-147.5 -134h186v-71h-311v71q21 18 52.5 44t48 39.5t38 32.5t32.5 31.5t22 27t15.5 27.5t4.5 26q0 61 -61 61 q-58 0 -65 -68h-97z" />
<glyph unicode="&#xbe;" horiz-adv-x="935" d="M50 394h97q7 -54 75 -54q71 0 71 60q0 61 -89 61h-52v70h52q78 0 78 57q0 52 -63 52q-58 0 -67 -54h-98q5 58 49.5 90.5t115.5 32.5t114.5 -32t43.5 -87q0 -30 -21 -55.5t-59 -35.5q48 -8 70 -35.5t22 -63.5q0 -58 -49 -93.5t-118 -35.5q-79 0 -124 32t-48 91zM211 0 l447 700h110l-447 -700h-110zM543 68v73l131 279h92l-133 -279h99v93h89v-93h64v-73h-64v-68h-89v68h-189z" />
<glyph unicode="&#xbf;" horiz-adv-x="533" d="M40 -39q0 40 12 72t30 50.5t40 36.5t42 30.5t35.5 31t20.5 39t-3 55.5h113q11 -56 -2.5 -93.5t-40.5 -58t-56 -39t-50.5 -49t-21.5 -75.5q0 -47 27.5 -72t75.5 -25q46 0 76.5 28t35.5 85h122q-6 -94 -68.5 -147t-165.5 -53q-102 0 -162 48.5t-60 135.5zM201 435 q0 31 20 51.5t51 20.5t51.5 -20.5t20.5 -51.5t-20.5 -51.5t-51.5 -20.5t-51 20.5t-20 51.5z" />
<glyph unicode="&#xc0;" horiz-adv-x="644" d="M10 0l246 700h121l257 -700h-125l-63 181h-266l-59 -181h-111zM142 893h147l132 -141h-98zM208 268h208l-61 175l-46 149l-44 -149z" />
<glyph unicode="&#xc1;" horiz-adv-x="644" d="M10 0l246 700h121l257 -700h-125l-63 181h-266l-59 -181h-111zM208 268h208l-61 175l-46 149l-44 -149zM208 752l132 141h147l-181 -141h-98z" />
<glyph unicode="&#xc2;" horiz-adv-x="644" d="M10 0l246 700h121l257 -700h-125l-63 181h-266l-59 -181h-111zM113 752l148 141h106l149 -141h-104l-98 66l-97 -66h-104zM208 268h208l-61 175l-46 149l-44 -149z" />
<glyph unicode="&#xc3;" horiz-adv-x="644" d="M10 0l246 700h121l257 -700h-125l-63 181h-266l-59 -181h-111zM127 794q19 48 49.5 73.5t64.5 25.5q30 0 82.5 -22.5t65.5 -22.5q33 0 53 41l60 -28q-18 -48 -48.5 -73.5t-65.5 -25.5q-30 0 -82 22.5t-66 22.5q-32 0 -53 -41zM208 268h208l-61 175l-46 149l-44 -149z" />
<glyph unicode="&#xc4;" horiz-adv-x="644" d="M10 0l246 700h121l257 -700h-125l-63 181h-266l-59 -181h-111zM138 828q0 28 19.5 47t48.5 19q28 0 47.5 -19t19.5 -47t-19.5 -46.5t-47.5 -18.5q-29 0 -48.5 18.5t-19.5 46.5zM208 268h208l-61 175l-46 149l-44 -149zM355 828q0 28 19.5 47t48.5 19t48.5 -19t19.5 -47 t-19.5 -46.5t-48.5 -18.5t-48.5 18.5t-19.5 46.5z" />
<glyph unicode="&#xc5;" horiz-adv-x="644" d="M10 0l246 700h121l257 -700h-125l-63 181h-266l-59 -181h-111zM197 821q0 45 33.5 72t83.5 27q51 0 84.5 -27t33.5 -72t-33.5 -72t-84.5 -27q-50 0 -83.5 27t-33.5 72zM208 268h208l-61 175l-46 149l-44 -149zM281 809q11 -34 46 -22q32 11 21 46q-12 34 -46 22 q-34 -10 -21 -46z" />
<glyph unicode="&#xc6;" horiz-adv-x="955" d="M7 0l470 700h425v-89h-303v-198h283v-89h-283v-235h303v-89h-419v181h-232l-117 -181h-127zM307 268h176v278l-81 -131z" />
<glyph unicode="&#xc7;" horiz-adv-x="671" d="M47 350q0 166 83 265.5t220 99.5q117 0 190 -62t87 -185h-126q-19 158 -151 158q-80 0 -129.5 -71t-49.5 -205q0 -136 47 -206t132 -70q132 0 151 158h126q-13 -120 -82 -181.5t-181 -65.5l-38 -50q46 3 79 -18.5t33 -65.5q0 -46 -37 -72.5t-89 -26.5q-43 0 -72 14v56 q29 -13 64 -13q20 0 36 10t16 29t-15.5 28.5t-36.5 9.5q-20 0 -40 -6l-21 36l54 73q-121 17 -185.5 112.5t-64.5 248.5z" />
<glyph unicode="&#xc8;" horiz-adv-x="555" d="M84 0v700h418v-89h-302v-198h282v-89h-282v-235h302v-89h-418zM106 893h147l132 -141h-98z" />
<glyph unicode="&#xc9;" horiz-adv-x="555" d="M84 0v700h418v-89h-302v-198h282v-89h-282v-235h302v-89h-418zM176 752l132 141h147l-181 -141h-98z" />
<glyph unicode="&#xca;" horiz-adv-x="555" d="M84 0v700h418v-89h-302v-198h282v-89h-282v-235h302v-89h-418zM92 752l148 141h106l149 -141h-104l-98 66l-97 -66h-104z" />
<glyph unicode="&#xcb;" horiz-adv-x="555" d="M84 0v700h418v-89h-302v-198h282v-89h-282v-235h302v-89h-418zM116 828q0 28 19.5 47t48.5 19q28 0 47.5 -19t19.5 -47t-19.5 -46.5t-47.5 -18.5q-29 0 -48.5 18.5t-19.5 46.5zM333 828q0 28 19.5 47t48.5 19t48.5 -19t19.5 -47t-19.5 -46.5t-48.5 -18.5t-48.5 18.5 t-19.5 46.5z" />
<glyph unicode="&#xcc;" horiz-adv-x="284" d="M-68 893h147l132 -141h-98zM84 0v700h116v-700h-116z" />
<glyph unicode="&#xcd;" horiz-adv-x="284" d="M46 752l132 141h147l-181 -141h-98zM84 0v700h116v-700h-116z" />
<glyph unicode="&#xce;" horiz-adv-x="284" d="M-59 752l148 141h106l149 -141h-104l-98 66l-97 -66h-104zM84 0v700h116v-700h-116z" />
<glyph unicode="&#xcf;" horiz-adv-x="284" d="M-7 828q0 28 19.5 47t47.5 19q29 0 48.5 -19t19.5 -47t-19.5 -46.5t-48.5 -18.5q-28 0 -47.5 18.5t-19.5 46.5zM84 0v700h116v-700h-116zM155 828q0 28 19.5 47t48.5 19q28 0 48 -19t20 -47q0 -27 -20 -46t-48 -19q-29 0 -48.5 18.5t-19.5 46.5z" />
<glyph unicode="&#xd0;" horiz-adv-x="709" d="M-20 303v89h104v308h220q163 0 260.5 -93t97.5 -257t-97.5 -257t-260.5 -93h-220v303h-104zM200 89h104q107 0 171 64t64 197t-64 197t-171 64h-104v-219h147v-89h-147v-214z" />
<glyph unicode="&#xd1;" horiz-adv-x="719" d="M84 0v700h117l331 -529l-3 142v387h106v-700h-117l-331 529l3 -142v-387h-106zM172 794q19 48 49.5 73.5t64.5 25.5q30 0 82.5 -22.5t65.5 -22.5q32 0 53 41l60 -28q-18 -48 -48.5 -73.5t-65.5 -25.5q-30 0 -82 22.5t-66 22.5q-33 0 -53 -41z" />
<glyph unicode="&#xd2;" horiz-adv-x="741" d="M47 350q0 166 88 265.5t236 99.5t235.5 -99.5t87.5 -265.5t-87.5 -265.5t-235.5 -99.5t-236 99.5t-88 265.5zM171 350q0 -135 54 -205.5t146 -70.5t146 70.5t54 205.5t-54 205.5t-146 70.5t-146 -70.5t-54 -205.5zM198 893h147l132 -141h-98z" />
<glyph unicode="&#xd3;" horiz-adv-x="741" d="M47 350q0 166 88 265.5t236 99.5t235.5 -99.5t87.5 -265.5t-87.5 -265.5t-235.5 -99.5t-236 99.5t-88 265.5zM171 350q0 -135 54 -205.5t146 -70.5t146 70.5t54 205.5t-54 205.5t-146 70.5t-146 -70.5t-54 -205.5zM264 752l132 141h147l-181 -141h-98z" />
<glyph unicode="&#xd4;" horiz-adv-x="741" d="M47 350q0 166 88 265.5t236 99.5t235.5 -99.5t87.5 -265.5t-87.5 -265.5t-235.5 -99.5t-236 99.5t-88 265.5zM169 752l148 141h106l149 -141h-104l-98 66l-97 -66h-104zM171 350q0 -135 54 -205.5t146 -70.5t146 70.5t54 205.5t-54 205.5t-146 70.5t-146 -70.5 t-54 -205.5z" />
<glyph unicode="&#xd5;" horiz-adv-x="741" d="M47 350q0 166 88 265.5t236 99.5t235.5 -99.5t87.5 -265.5t-87.5 -265.5t-235.5 -99.5t-236 99.5t-88 265.5zM171 350q0 -135 54 -205.5t146 -70.5t146 70.5t54 205.5t-54 205.5t-146 70.5t-146 -70.5t-54 -205.5zM183 794q19 48 49.5 73.5t64.5 25.5q30 0 82.5 -22.5 t65.5 -22.5q33 0 53 41l60 -28q-18 -48 -48.5 -73.5t-65.5 -25.5q-30 0 -82 22.5t-66 22.5q-32 0 -53 -41z" />
<glyph unicode="&#xd6;" horiz-adv-x="741" d="M47 350q0 166 88 265.5t236 99.5t235.5 -99.5t87.5 -265.5t-87.5 -265.5t-235.5 -99.5t-236 99.5t-88 265.5zM171 350q0 -135 54 -205.5t146 -70.5t146 70.5t54 205.5t-54 205.5t-146 70.5t-146 -70.5t-54 -205.5zM194 828q0 28 19.5 47t48.5 19q28 0 47.5 -19t19.5 -47 t-19.5 -46.5t-47.5 -18.5q-29 0 -48.5 18.5t-19.5 46.5zM411 828q0 28 19.5 47t48.5 19t48.5 -19t19.5 -47t-19.5 -46.5t-48.5 -18.5t-48.5 18.5t-19.5 46.5z" />
<glyph unicode="&#xd7;" horiz-adv-x="528" d="M65 213l153 152l-153 152l63 63l152 -152l153 153l63 -63l-154 -153l154 -153l-63 -62l-153 153l-152 -153z" />
<glyph unicode="&#xd8;" horiz-adv-x="741" d="M47 350q0 166 88 265.5t236 99.5q68 0 126 -23l53 98h119l-83 -153q108 -100 108 -287q0 -166 -87.5 -265.5t-235.5 -99.5q-68 0 -126 23l-53 -98h-119l83 153q-109 100 -109 287zM171 350q0 -115 41 -184l240 443q-37 17 -81 17q-92 0 -146 -70.5t-54 -205.5zM290 91 q37 -17 81 -17q92 0 146 70.5t54 205.5q0 115 -41 184z" />
<glyph unicode="&#xd9;" horiz-adv-x="705" d="M74 230v470h116v-450q0 -88 37.5 -132t123.5 -44q85 0 126.5 41.5t41.5 114.5v470h105v-450q0 -126 -73.5 -195.5t-199.5 -69.5q-127 0 -202 63.5t-75 181.5zM181 893h147l132 -141h-98z" />
<glyph unicode="&#xda;" horiz-adv-x="705" d="M74 230v470h116v-450q0 -88 37.5 -132t123.5 -44q85 0 126.5 41.5t41.5 114.5v470h105v-450q0 -126 -73.5 -195.5t-199.5 -69.5q-127 0 -202 63.5t-75 181.5zM236 752l132 141h147l-181 -141h-98z" />
<glyph unicode="&#xdb;" horiz-adv-x="705" d="M74 230v470h116v-450q0 -88 37.5 -132t123.5 -44q85 0 126.5 41.5t41.5 114.5v470h105v-450q0 -126 -73.5 -195.5t-199.5 -69.5q-127 0 -202 63.5t-75 181.5zM148 752l148 141h106l149 -141h-104l-98 66l-97 -66h-104z" />
<glyph unicode="&#xdc;" horiz-adv-x="705" d="M74 230v470h116v-450q0 -88 37.5 -132t123.5 -44q85 0 126.5 41.5t41.5 114.5v470h105v-450q0 -126 -73.5 -195.5t-199.5 -69.5q-127 0 -202 63.5t-75 181.5zM172 828q0 28 19.5 47t48.5 19q28 0 47.5 -19t19.5 -47t-19.5 -46.5t-47.5 -18.5q-29 0 -48.5 18.5t-19.5 46.5 zM389 828q0 28 19.5 47t48.5 19t48.5 -19t19.5 -47t-19.5 -46.5t-48.5 -18.5t-48.5 18.5t-19.5 46.5z" />
<glyph unicode="&#xdd;" horiz-adv-x="599" d="M24 700h125l165 -353l155 353h106l-213 -445v-255h-116v255zM189 752l132 141h147l-181 -141h-98z" />
<glyph unicode="&#xde;" horiz-adv-x="601" d="M84 0v700h116v-113h110q105 0 179.5 -58.5t74.5 -168.5t-74.5 -169t-179.5 -59h-110v-132h-116zM200 220h110q61 0 98.5 35.5t37.5 104.5t-37.5 104.5t-98.5 35.5h-110v-280z" />
<glyph unicode="&#xdf;" horiz-adv-x="642" d="M74 0v496q0 124 74 193.5t180 69.5q41 0 77.5 -8t66 -25t47 -46.5t17.5 -68.5q0 -34 -17.5 -65.5t-39 -50.5t-39 -42.5t-17.5 -43.5q0 -23 20 -42.5t48 -36.5t56 -37.5t48 -55t20 -79.5q0 -78 -56 -125.5t-132 -47.5q-180 0 -185 165h111q2 -45 21 -68t60 -23 q31 0 53.5 21t22.5 60q0 36 -20 62.5t-49 43.5t-58 35t-49 47t-20 68q0 28 17 56t38 47.5t38 46t17 52.5q0 40 -25.5 62.5t-73.5 22.5q-60 0 -100.5 -46t-40.5 -140v-497h-110z" />
<glyph unicode="&#xe0;" horiz-adv-x="557" d="M44 123q0 72 60 120t190 48q23 0 79 -4v59q0 112 -92 112q-53 0 -79 -26t-28 -86h-112q1 92 59 140t160 48q39 0 72.5 -8t64 -27t48 -54.5t17.5 -85.5v-359h-110v61q-78 -76 -171 -76q-74 0 -116 37.5t-42 100.5zM128 736h137l102 -154h-91zM155 139q0 -73 94 -73 q31 0 65.5 17.5t58.5 42.5v96q-35 4 -72 4q-146 0 -146 -87z" />
<glyph unicode="&#xe1;" horiz-adv-x="557" d="M44 123q0 72 60 120t190 48q23 0 79 -4v59q0 112 -92 112q-53 0 -79 -26t-28 -86h-112q1 92 59 140t160 48q39 0 72.5 -8t64 -27t48 -54.5t17.5 -85.5v-359h-110v61q-78 -76 -171 -76q-74 0 -116 37.5t-42 100.5zM155 139q0 -73 94 -73q31 0 65.5 17.5t58.5 42.5v96 q-35 4 -72 4q-146 0 -146 -87zM184 582l102 154h137l-148 -154h-91z" />
<glyph unicode="&#xe2;" horiz-adv-x="557" d="M44 123q0 72 60 120t190 48q23 0 79 -4v59q0 112 -92 112q-53 0 -79 -26t-28 -86h-112q1 92 59 140t160 48q39 0 72.5 -8t64 -27t48 -54.5t17.5 -85.5v-359h-110v61q-78 -76 -171 -76q-74 0 -116 37.5t-42 100.5zM106 582l114 154h113l115 -154h-91l-80 83l-80 -83h-91z M155 139q0 -73 94 -73q31 0 65.5 17.5t58.5 42.5v96q-35 4 -72 4q-146 0 -146 -87z" />
<glyph unicode="&#xe3;" horiz-adv-x="557" d="M44 123q0 72 60 120t190 48q23 0 79 -4v59q0 112 -92 112q-53 0 -79 -26t-28 -86h-112q1 92 59 140t160 48q39 0 72.5 -8t64 -27t48 -54.5t17.5 -85.5v-359h-110v61q-78 -76 -171 -76q-74 0 -116 37.5t-42 100.5zM100 621q19 47 50 72.5t63 25.5q30 0 74.5 -22.5 t57.5 -22.5q29 0 50 42l60 -29q-18 -48 -49 -73t-63 -25q-30 0 -74.5 22t-58.5 22q-30 0 -50 -41zM155 139q0 -73 94 -73q31 0 65.5 17.5t58.5 42.5v96q-35 4 -72 4q-146 0 -146 -87z" />
<glyph unicode="&#xe4;" horiz-adv-x="557" d="M44 123q0 72 60 120t190 48q23 0 79 -4v59q0 112 -92 112q-53 0 -79 -26t-28 -86h-112q1 92 59 140t160 48q39 0 72.5 -8t64 -27t48 -54.5t17.5 -85.5v-359h-110v61q-78 -76 -171 -76q-74 0 -116 37.5t-42 100.5zM111 662q0 28 19.5 47.5t47.5 19.5t48 -19.5t20 -47.5 t-20 -47.5t-48 -19.5t-47.5 19.5t-19.5 47.5zM155 139q0 -73 94 -73q31 0 65.5 17.5t58.5 42.5v96q-35 4 -72 4q-146 0 -146 -87zM307 662q0 28 19.5 47.5t47.5 19.5t48 -19.5t20 -47.5t-20 -47.5t-48 -19.5t-47.5 19.5t-19.5 47.5z" />
<glyph unicode="&#xe5;" horiz-adv-x="557" d="M44 123q0 72 60 120t190 48q23 0 79 -4v59q0 112 -92 112q-53 0 -79 -26t-28 -86h-112q1 92 59 140t160 48q39 0 72.5 -8t64 -27t48 -54.5t17.5 -85.5v-359h-110v61q-78 -76 -171 -76q-74 0 -116 37.5t-42 100.5zM155 139q0 -73 94 -73q31 0 65.5 17.5t58.5 42.5v96 q-35 4 -72 4q-146 0 -146 -87zM159 659q0 45 33.5 71t83.5 26q51 0 84.5 -26t33.5 -71t-33.5 -71.5t-84.5 -26.5q-50 0 -83.5 26.5t-33.5 71.5zM243 648q5 -16 18 -22.5t28 -1.5q32 10 21 45q-12 34 -46 24t-21 -45z" />
<glyph unicode="&#xe6;" horiz-adv-x="879" d="M44 123q0 72 60 120t190 48q23 0 79 -4v59q0 112 -92 112q-53 0 -79 -26t-28 -86h-112q1 92 59 140t160 48q114 0 162 -72q62 72 161 72q115 0 175 -75.5t52 -214.5h-346q3 -183 120 -183q88 0 104 86h114q-9 -72 -67.5 -117t-150.5 -45q-133 0 -191 101 q-96 -101 -212 -101q-74 0 -116 37.5t-42 100.5zM155 139q0 -37 24 -55t63 -18t78.5 22.5t68.5 54.5q-11 36 -14 79q-36 4 -74 4q-146 0 -146 -87zM488 313h228q-1 73 -30.5 109.5t-81.5 36.5q-46 0 -77 -35.5t-39 -110.5z" />
<glyph unicode="&#xe7;" horiz-adv-x="542" d="M47 259q0 125 62 200t174 75q98 0 156 -50t66 -137h-113q-9 60 -34 85.5t-75 25.5q-56 0 -89 -50t-33 -149q0 -198 122 -198q48 0 73.5 25t34.5 83h114q-9 -82 -62 -130.5t-142 -53.5l-38 -50q46 3 79 -18.5t33 -65.5q0 -46 -37 -72.5t-89 -26.5q-43 0 -72 14v56 q29 -13 64 -13q20 0 36 10t16 29t-15.5 28.5t-36.5 9.5t-40 -6l-21 36l54 73q-94 15 -140.5 85.5t-46.5 184.5z" />
<glyph unicode="&#xe8;" horiz-adv-x="553" d="M47 259q0 123 63 199t168 76q115 0 175 -75.5t51 -214.5h-346q4 -183 121 -183q87 0 104 86h113q-8 -72 -66.5 -117t-150.5 -45q-116 0 -174 73t-58 201zM112 736h137l102 -154h-91zM161 313h229q-1 73 -30.5 109.5t-81.5 36.5q-100 0 -117 -146z" />
<glyph unicode="&#xe9;" horiz-adv-x="553" d="M47 259q0 123 63 199t168 76q115 0 175 -75.5t51 -214.5h-346q4 -183 121 -183q87 0 104 86h113q-8 -72 -66.5 -117t-150.5 -45q-116 0 -174 73t-58 201zM161 313h229q-1 73 -30.5 109.5t-81.5 36.5q-100 0 -117 -146zM186 582l102 154h137l-148 -154h-91z" />
<glyph unicode="&#xea;" horiz-adv-x="553" d="M47 259q0 123 63 199t168 76q115 0 175 -75.5t51 -214.5h-346q4 -183 121 -183q87 0 104 86h113q-8 -72 -66.5 -117t-150.5 -45q-116 0 -174 73t-58 201zM107 582l114 154h113l115 -154h-91l-80 83l-80 -83h-91zM161 313h229q-1 73 -30.5 109.5t-81.5 36.5 q-100 0 -117 -146z" />
<glyph unicode="&#xeb;" horiz-adv-x="553" d="M47 259q0 123 63 199t168 76q115 0 175 -75.5t51 -214.5h-346q4 -183 121 -183q87 0 104 86h113q-8 -72 -66.5 -117t-150.5 -45q-116 0 -174 73t-58 201zM113 662q0 28 19.5 47.5t47.5 19.5t48 -19.5t20 -47.5t-20 -47.5t-48 -19.5t-47.5 19.5t-19.5 47.5zM161 313h229 q-1 73 -30.5 109.5t-81.5 36.5q-100 0 -117 -146zM309 662q0 28 19.5 47.5t47.5 19.5t48 -19.5t20 -47.5t-20 -47.5t-48 -19.5t-47.5 19.5t-19.5 47.5z" />
<glyph unicode="&#xec;" horiz-adv-x="258" d="M-62 736h137l102 -154h-91zM74 0v519h110v-519h-110z" />
<glyph unicode="&#xed;" horiz-adv-x="258" d="M73 582l102 154h137l-148 -154h-91zM74 0v519h110v-519h-110z" />
<glyph unicode="&#xee;" horiz-adv-x="258" d="M-41 582l114 154h113l115 -154h-91l-80 83l-80 -83h-91zM74 0v519h110v-519h-110z" />
<glyph unicode="&#xef;" horiz-adv-x="258" d="M-19 662q0 28 19.5 47.5t47.5 19.5t47.5 -19.5t19.5 -47.5t-19.5 -47.5t-47.5 -19.5t-47.5 19.5t-19.5 47.5zM74 0v519h110v-519h-110zM142 662q0 28 20 47.5t48 19.5t47.5 -19.5t19.5 -47.5t-19.5 -47.5t-47.5 -19.5t-48 19.5t-20 47.5z" />
<glyph unicode="&#xf0;" horiz-adv-x="585" d="M47 248q0 117 61 190.5t163 73.5q61 0 108 -36q-30 65 -87 128l-132 -47l-45 64l116 42q-51 43 -109 81h136q33 -21 66 -48l116 41l45 -64l-100 -36q153 -164 153 -360q0 -131 -63.5 -211.5t-177.5 -80.5q-116 0 -183 71t-67 192zM161 248q0 -81 32.5 -134t102.5 -53 q61 0 96 49t35 147q0 71 -16 131q-47 49 -115 49q-61 0 -98 -49.5t-37 -139.5z" />
<glyph unicode="&#xf1;" horiz-adv-x="599" d="M74 0v519h110v-68q81 83 181 83q70 0 115 -41t45 -130v-363h-110v340q0 105 -97 105q-34 0 -71.5 -17.5t-62.5 -42.5v-385h-110zM112 621q19 47 50 72.5t63 25.5q30 0 74.5 -22.5t57.5 -22.5q29 0 50 42l60 -29q-18 -48 -49 -73t-63 -25q-30 0 -74.5 22t-58.5 22 q-30 0 -50 -41z" />
<glyph unicode="&#xf2;" horiz-adv-x="589" d="M47 259q0 125 65.5 200t181.5 75t182 -75t66 -200t-66 -199.5t-182 -74.5t-181.5 74.5t-65.5 199.5zM149 736h137l102 -154h-91zM161 259q0 -100 35.5 -149t97.5 -49t97.5 49t35.5 149t-35.5 149.5t-97.5 49.5t-97.5 -49.5t-35.5 -149.5z" />
<glyph unicode="&#xf3;" horiz-adv-x="589" d="M47 259q0 125 65.5 200t181.5 75t182 -75t66 -200t-66 -199.5t-182 -74.5t-181.5 74.5t-65.5 199.5zM161 259q0 -100 35.5 -149t97.5 -49t97.5 49t35.5 149t-35.5 149.5t-97.5 49.5t-97.5 -49.5t-35.5 -149.5zM201 582l102 154h137l-148 -154h-91z" />
<glyph unicode="&#xf4;" horiz-adv-x="589" d="M47 259q0 125 65.5 200t181.5 75t182 -75t66 -200t-66 -199.5t-182 -74.5t-181.5 74.5t-65.5 199.5zM123 582l114 154h113l115 -154h-91l-80 83l-80 -83h-91zM161 259q0 -100 35.5 -149t97.5 -49t97.5 49t35.5 149t-35.5 149.5t-97.5 49.5t-97.5 -49.5t-35.5 -149.5z" />
<glyph unicode="&#xf5;" horiz-adv-x="589" d="M47 259q0 125 65.5 200t181.5 75t182 -75t66 -200t-66 -199.5t-182 -74.5t-181.5 74.5t-65.5 199.5zM117 621q19 47 50 72.5t63 25.5q30 0 74.5 -22.5t57.5 -22.5q29 0 50 42l60 -29q-18 -48 -49 -73t-63 -25q-30 0 -74.5 22t-58.5 22q-29 0 -50 -41zM161 259 q0 -100 35.5 -149t97.5 -49t97.5 49t35.5 149t-35.5 149.5t-97.5 49.5t-97.5 -49.5t-35.5 -149.5z" />
<glyph unicode="&#xf6;" horiz-adv-x="589" d="M47 259q0 125 65.5 200t181.5 75t182 -75t66 -200t-66 -199.5t-182 -74.5t-181.5 74.5t-65.5 199.5zM129 662q0 28 19.5 47.5t47.5 19.5t48 -19.5t20 -47.5t-20 -47.5t-48 -19.5t-47.5 19.5t-19.5 47.5zM161 259q0 -100 35.5 -149t97.5 -49t97.5 49t35.5 149t-35.5 149.5 t-97.5 49.5t-97.5 -49.5t-35.5 -149.5zM325 662q0 28 19.5 47.5t47.5 19.5t48 -19.5t20 -47.5t-20 -47.5t-48 -19.5t-47.5 19.5t-19.5 47.5z" />
<glyph unicode="&#xf7;" horiz-adv-x="566" d="M50 321v89h466v-89h-466zM217 179q0 27 19 45.5t47 18.5t47 -18.5t19 -45.5t-19 -46t-47 -19t-47 19t-19 46zM217 553q0 27 19 45.5t47 18.5t47 -18.5t19 -45.5t-19 -46t-47 -19t-47 19t-19 46z" />
<glyph unicode="&#xf8;" horiz-adv-x="589" d="M45 -80l75 131q-73 75 -73 208q0 125 65.5 200t181.5 75q54 0 95 -16l46 81h107l-75 -131q75 -73 75 -209q0 -125 -66 -199.5t-182 -74.5q-50 0 -95 16l-47 -81h-107zM161 259q0 -64 16 -110l171 298q-25 11 -54 11q-62 0 -97.5 -49.5t-35.5 -149.5zM240 73 q24 -12 54 -12q62 0 97.5 49t35.5 149q0 65 -16 111z" />
<glyph unicode="&#xf9;" horiz-adv-x="594" d="M74 155v364h110v-341q0 -104 94 -104q34 0 71 17.5t61 42.5v385h110v-519h-110v68q-81 -83 -178 -83q-70 0 -114 40.5t-44 129.5zM145 736h137l102 -154h-91z" />
<glyph unicode="&#xfa;" horiz-adv-x="594" d="M74 155v364h110v-341q0 -104 94 -104q34 0 71 17.5t61 42.5v385h110v-519h-110v68q-81 -83 -178 -83q-70 0 -114 40.5t-44 129.5zM211 582l102 154h137l-148 -154h-91z" />
<glyph unicode="&#xfb;" horiz-adv-x="594" d="M74 155v364h110v-341q0 -104 94 -104q34 0 71 17.5t61 42.5v385h110v-519h-110v68q-81 -83 -178 -83q-70 0 -114 40.5t-44 129.5zM126 582l114 154h113l115 -154h-91l-80 83l-80 -83h-91z" />
<glyph unicode="&#xfc;" horiz-adv-x="594" d="M74 155v364h110v-341q0 -104 94 -104q34 0 71 17.5t61 42.5v385h110v-519h-110v68q-81 -83 -178 -83q-70 0 -114 40.5t-44 129.5zM131 662q0 28 19.5 47.5t47.5 19.5t48 -19.5t20 -47.5t-20 -47.5t-48 -19.5t-47.5 19.5t-19.5 47.5zM327 662q0 28 19.5 47.5t47.5 19.5 t48 -19.5t20 -47.5t-20 -47.5t-48 -19.5t-47.5 19.5t-19.5 47.5z" />
<glyph unicode="&#xfd;" horiz-adv-x="520" d="M17 519h121l84 -238l47 -146l46 146l84 238h104l-267 -727h-102l81 212zM173 582l102 154h137l-148 -154h-91z" />
<glyph unicode="&#xfe;" horiz-adv-x="589" d="M74 -208v952h110v-279q69 69 160 69q86 0 142 -72t56 -203q0 -129 -66 -201.5t-158 -72.5q-83 0 -134 61v-254h-110zM184 116q47 -47 114 -47q54 0 92 48t38 142q0 95 -34 143t-88 48q-71 0 -122 -51v-283z" />
<glyph unicode="&#xff;" horiz-adv-x="520" d="M17 519h121l84 -238l47 -146l46 146l84 238h104l-267 -727h-102l81 212zM104 662q0 28 19.5 47.5t47.5 19.5t48 -19.5t20 -47.5t-20 -47.5t-48 -19.5t-47.5 19.5t-19.5 47.5zM300 662q0 28 19.5 47.5t47.5 19.5t48 -19.5t20 -47.5t-20 -47.5t-48 -19.5t-47.5 19.5 t-19.5 47.5z" />
<glyph unicode="&#x100;" horiz-adv-x="644" d="M10 0l246 700h121l257 -700h-125l-63 181h-266l-59 -181h-111zM152 784v78h325v-78h-325zM208 268h208l-61 175l-46 149l-44 -149z" />
<glyph unicode="&#x101;" horiz-adv-x="557" d="M44 123q0 72 60 120t190 48q23 0 79 -4v59q0 112 -92 112q-53 0 -79 -26t-28 -86h-112q1 92 59 140t160 48q39 0 72.5 -8t64 -27t48 -54.5t17.5 -85.5v-359h-110v61q-78 -76 -171 -76q-74 0 -116 37.5t-42 100.5zM126 612v78h302v-78h-302zM155 139q0 -73 94 -73 q31 0 65.5 17.5t58.5 42.5v96q-35 4 -72 4q-146 0 -146 -87z" />
<glyph unicode="&#x102;" horiz-adv-x="644" d="M10 0l246 700h121l257 -700h-125l-63 181h-266l-59 -181h-111zM158 893h77q0 -29 20.5 -47.5t59.5 -18.5t59 18.5t20 47.5h77q0 -73 -43.5 -112t-112.5 -39t-113 39t-44 112zM208 268h208l-61 175l-46 149l-44 -149z" />
<glyph unicode="&#x103;" horiz-adv-x="557" d="M44 123q0 72 60 120t190 48q23 0 79 -4v59q0 112 -92 112q-53 0 -79 -26t-28 -86h-112q1 92 59 140t160 48q39 0 72.5 -8t64 -27t48 -54.5t17.5 -85.5v-359h-110v61q-78 -76 -171 -76q-74 0 -116 37.5t-42 100.5zM130 736h76q0 -35 18 -58t53 -23t52.5 23t17.5 58h76 q0 -80 -41.5 -121.5t-104.5 -41.5t-105 41.5t-42 121.5zM155 139q0 -73 94 -73q31 0 65.5 17.5t58.5 42.5v96q-35 4 -72 4q-146 0 -146 -87z" />
<glyph unicode="&#x104;" horiz-adv-x="644" d="M10 0l246 700h121l257 -700h-1q-119 -62 -119 -133q0 -21 14.5 -34t33.5 -13q31 0 71 21v-65q-42 -24 -100 -24q-50 0 -79.5 28.5t-29.5 71.5q0 86 111 148h-26l-63 181h-266l-59 -181h-111zM208 268h208l-61 175l-46 149l-44 -149z" />
<glyph unicode="&#x105;" horiz-adv-x="557" d="M44 123q0 72 60 120t190 48q23 0 79 -4v59q0 112 -92 112q-53 0 -79 -26t-28 -86h-112q1 92 59 140t160 48q39 0 72.5 -8t64 -27t48 -54.5t17.5 -85.5v-359q-119 -62 -119 -133q0 -21 14.5 -34t33.5 -13q31 0 71 21v-65q-42 -24 -100 -24q-50 0 -79.5 28.5t-29.5 71.5 q0 86 111 148h-12v61q-78 -76 -171 -76q-74 0 -116 37.5t-42 100.5zM155 139q0 -73 94 -73q31 0 65.5 17.5t58.5 42.5v96q-35 4 -72 4q-146 0 -146 -87z" />
<glyph unicode="&#x106;" horiz-adv-x="671" d="M47 350q0 166 83 265.5t220 99.5q117 0 190 -62t87 -185h-126q-19 158 -151 158q-80 0 -129.5 -71t-49.5 -205q0 -136 47 -206t132 -70q132 0 151 158h126q-14 -123 -87 -185t-190 -62q-146 0 -224.5 98t-78.5 267zM216 752l132 141h147l-181 -141h-98z" />
<glyph unicode="&#x107;" horiz-adv-x="542" d="M47 259q0 125 62 200t174 75q98 0 156 -50t66 -137h-113q-9 60 -34 85.5t-75 25.5q-56 0 -89 -50t-33 -149q0 -198 122 -198q48 0 73.5 25t34.5 83h114q-10 -86 -68 -135t-154 -49q-118 0 -177 73t-59 201zM230 582l102 154h137l-148 -154h-91z" />
<glyph unicode="&#x108;" horiz-adv-x="671" d="M47 350q0 166 83 265.5t220 99.5q117 0 190 -62t87 -185h-126q-19 158 -151 158q-80 0 -129.5 -71t-49.5 -205q0 -136 47 -206t132 -70q132 0 151 158h126q-14 -123 -87 -185t-190 -62q-146 0 -224.5 98t-78.5 267zM135 752l148 141h106l149 -141h-104l-98 66l-97 -66 h-104z" />
<glyph unicode="&#x109;" horiz-adv-x="542" d="M47 259q0 125 62 200t174 75q98 0 156 -50t66 -137h-113q-9 60 -34 85.5t-75 25.5q-56 0 -89 -50t-33 -149q0 -198 122 -198q48 0 73.5 25t34.5 83h114q-10 -86 -68 -135t-154 -49q-118 0 -177 73t-59 201zM105 582l114 154h113l115 -154h-91l-80 83l-80 -83h-91z" />
<glyph unicode="&#x10a;" horiz-adv-x="671" d="M47 350q0 166 83 265.5t220 99.5q117 0 190 -62t87 -185h-126q-19 158 -151 158q-80 0 -129.5 -71t-49.5 -205q0 -136 47 -206t132 -70q132 0 151 158h126q-14 -123 -87 -185t-190 -62q-146 0 -224.5 98t-78.5 267zM267 828q0 28 20 47.5t49 19.5t49.5 -19.5t20.5 -47.5 t-20.5 -47.5t-49.5 -19.5t-49 19.5t-20 47.5z" />
<glyph unicode="&#x10b;" horiz-adv-x="542" d="M47 259q0 125 62 200t174 75q98 0 156 -50t66 -137h-113q-9 60 -34 85.5t-75 25.5q-56 0 -89 -50t-33 -149q0 -198 122 -198q48 0 73.5 25t34.5 83h114q-10 -86 -68 -135t-154 -49q-118 0 -177 73t-59 201zM206 662q0 29 20 49t49 20t49 -20t20 -49t-20 -48.5t-49 -19.5 t-49 19.5t-20 48.5z" />
<glyph unicode="&#x10c;" horiz-adv-x="671" d="M47 350q0 166 83 265.5t220 99.5q117 0 190 -62t87 -185h-126q-19 158 -151 158q-80 0 -129.5 -71t-49.5 -205q0 -136 47 -206t132 -70q132 0 151 158h126q-14 -123 -87 -185t-190 -62q-146 0 -224.5 98t-78.5 267zM135 893h104l97 -66l98 66h104l-149 -141h-106z" />
<glyph unicode="&#x10d;" horiz-adv-x="542" d="M47 259q0 125 62 200t174 75q98 0 156 -50t66 -137h-113q-9 60 -34 85.5t-75 25.5q-56 0 -89 -50t-33 -149q0 -198 122 -198q48 0 73.5 25t34.5 83h114q-10 -86 -68 -135t-154 -49q-118 0 -177 73t-59 201zM105 736h91l80 -82l80 82h91l-115 -154h-113z" />
<glyph unicode="&#x10e;" horiz-adv-x="709" d="M84 0v700h220q163 0 260.5 -93t97.5 -257t-97.5 -257t-260.5 -93h-220zM102 893h104l97 -66l98 66h104l-149 -141h-106zM200 89h104q107 0 171 64t64 197t-64 197t-171 64h-104v-522z" />
<glyph unicode="&#x10f;" horiz-adv-x="652" d="M47 259q0 129 66 202t158 73q83 0 134 -61v271h110v-744h-110v54q-69 -69 -159 -69q-87 0 -143 71.5t-56 202.5zM161 259q0 -95 34 -142.5t88 -47.5q71 0 122 51v283q-47 47 -113 47q-55 0 -93 -48.5t-38 -142.5zM572 577v226h99l-22 -226h-77z" />
<glyph unicode="&#x110;" horiz-adv-x="709" d="M-20 303v89h104v308h220q163 0 260.5 -93t97.5 -257t-97.5 -257t-260.5 -93h-220v303h-104zM200 89h104q107 0 171 64t64 197t-64 197t-171 64h-104v-219h147v-89h-147v-214z" />
<glyph unicode="&#x111;" horiz-adv-x="589" d="M47 259q0 129 66 202t158 73q83 0 134 -61v127h-118v78h118v66h110v-66h74v-78h-74v-600h-110v54q-69 -69 -159 -69q-87 0 -143 71.5t-56 202.5zM161 259q0 -95 34 -142.5t88 -47.5q71 0 122 51v283q-47 47 -113 47q-55 0 -93 -48.5t-38 -142.5z" />
<glyph unicode="&#x112;" horiz-adv-x="555" d="M84 0v700h418v-89h-302v-198h282v-89h-282v-235h302v-89h-418zM130 784v78h325v-78h-325z" />
<glyph unicode="&#x113;" horiz-adv-x="553" d="M47 259q0 123 63 199t168 76q115 0 175 -75.5t51 -214.5h-346q4 -183 121 -183q87 0 104 86h113q-8 -72 -66.5 -117t-150.5 -45q-116 0 -174 73t-58 201zM123 612v78h302v-78h-302zM161 313h229q-1 73 -30.5 109.5t-81.5 36.5q-100 0 -117 -146z" />
<glyph unicode="&#x114;" horiz-adv-x="555" d="M84 0v700h418v-89h-302v-198h282v-89h-282v-235h302v-89h-418zM136 893h77q0 -29 20.5 -47.5t59.5 -18.5t59 18.5t20 47.5h77q0 -73 -43.5 -112t-112.5 -39t-113 39t-44 112z" />
<glyph unicode="&#x115;" horiz-adv-x="553" d="M47 259q0 123 63 199t168 76q115 0 175 -75.5t51 -214.5h-346q4 -183 121 -183q87 0 104 86h113q-8 -72 -66.5 -117t-150.5 -45q-116 0 -174 73t-58 201zM131 736h76q0 -35 18 -58t53 -23t52.5 23t17.5 58h76q0 -80 -41.5 -121.5t-104.5 -41.5t-105 41.5t-42 121.5z M161 313h229q-1 73 -30.5 109.5t-81.5 36.5q-100 0 -117 -146z" />
<glyph unicode="&#x116;" horiz-adv-x="555" d="M84 0v700h418v-89h-302v-198h282v-89h-282v-235h302v-89h-418zM223 828q0 28 20 47.5t49 19.5t49.5 -19.5t20.5 -47.5t-20.5 -47.5t-49.5 -19.5t-49 19.5t-20 47.5z" />
<glyph unicode="&#x117;" horiz-adv-x="553" d="M47 259q0 123 63 199t168 76q115 0 175 -75.5t51 -214.5h-346q4 -183 121 -183q87 0 104 86h113q-8 -72 -66.5 -117t-150.5 -45q-116 0 -174 73t-58 201zM161 313h229q-1 73 -30.5 109.5t-81.5 36.5q-100 0 -117 -146zM202 662q0 29 20 49t49 20t49 -20t20 -49t-20 -48.5 t-49 -19.5t-49 19.5t-20 48.5z" />
<glyph unicode="&#x118;" horiz-adv-x="555" d="M84 0v700h418v-89h-302v-198h282v-89h-282v-235h302v-89q-119 -62 -119 -133q0 -21 14.5 -34t33.5 -13q31 0 71 21v-65q-42 -24 -100 -24q-50 0 -79.5 28.5t-29.5 71.5q0 86 111 148h-320z" />
<glyph unicode="&#x119;" horiz-adv-x="553" d="M47 259q0 123 63 199t168 76q115 0 175 -75.5t51 -214.5h-346q4 -183 121 -183q87 0 104 86h113q-4 -39 -27 -75q-36 -61 -49.5 -86t-28 -60.5t-14.5 -58.5q0 -21 14.5 -34t33.5 -13q31 0 71 21v-65q-42 -24 -100 -24q-50 0 -79.5 28.5t-29.5 71.5q0 56 63 141 q-35 -8 -71 -8q-116 0 -174 73t-58 201zM161 313h229q-1 73 -30.5 109.5t-81.5 36.5q-100 0 -117 -146z" />
<glyph unicode="&#x11a;" horiz-adv-x="555" d="M84 0v700h418v-89h-302v-198h282v-89h-282v-235h302v-89h-418zM92 893h104l97 -66l98 66h104l-149 -141h-106z" />
<glyph unicode="&#x11b;" horiz-adv-x="553" d="M47 259q0 123 63 199t168 76q115 0 175 -75.5t51 -214.5h-346q4 -183 121 -183q87 0 104 86h113q-8 -72 -66.5 -117t-150.5 -45q-116 0 -174 73t-58 201zM107 736h91l80 -82l80 82h91l-115 -154h-113zM161 313h229q-1 73 -30.5 109.5t-81.5 36.5q-100 0 -117 -146z" />
<glyph unicode="&#x11c;" horiz-adv-x="682" d="M47 350q0 166 83.5 265.5t222.5 99.5q113 0 183.5 -58.5t85.5 -172.5h-126q-20 142 -143 142q-82 0 -132 -71t-50 -205q0 -135 51 -206t130 -71q44 0 86.5 19.5t71.5 48.5v126h-156v86h268v-353h-112v67q-32 -35 -85 -58.5t-105 -23.5q-130 0 -201.5 97.5t-71.5 267.5z M136 752l148 141h106l149 -141h-104l-98 66l-97 -66h-104z" />
<glyph unicode="&#x11d;" horiz-adv-x="585" d="M47 262q0 129 66 200.5t158 71.5q83 0 134 -61v46h110v-516q0 -111 -67.5 -168.5t-163.5 -57.5q-107 0 -165.5 44t-60.5 128h113q2 -51 29.5 -73.5t83.5 -22.5q121 0 121 137v69q-70 -70 -159 -70q-87 0 -143 71t-56 202zM130 582l114 154h113l115 -154h-91l-80 83 l-80 -83h-91zM161 262q0 -95 34 -141.5t88 -46.5q71 0 122 51v278q-47 47 -113 47q-55 0 -93 -47t-38 -141z" />
<glyph unicode="&#x11e;" horiz-adv-x="682" d="M47 350q0 166 83.5 265.5t222.5 99.5q113 0 183.5 -58.5t85.5 -172.5h-126q-20 142 -143 142q-82 0 -132 -71t-50 -205q0 -135 51 -206t130 -71q44 0 86.5 19.5t71.5 48.5v126h-156v86h268v-353h-112v67q-32 -35 -85 -58.5t-105 -23.5q-130 0 -201.5 97.5t-71.5 267.5z M181 893h77q0 -29 20.5 -47.5t59.5 -18.5t59 18.5t20 47.5h77q0 -73 -43.5 -112t-112.5 -39t-113 39t-44 112z" />
<glyph unicode="&#x11f;" horiz-adv-x="585" d="M47 262q0 129 66 200.5t158 71.5q83 0 134 -61v46h110v-516q0 -111 -67.5 -168.5t-163.5 -57.5q-107 0 -165.5 44t-60.5 128h113q2 -51 29.5 -73.5t83.5 -22.5q121 0 121 137v69q-70 -70 -159 -70q-87 0 -143 71t-56 202zM154 736h76q0 -35 18 -58t53 -23t52.5 23 t17.5 58h76q0 -80 -41.5 -121.5t-104.5 -41.5t-105 41.5t-42 121.5zM161 262q0 -95 34 -141.5t88 -46.5q71 0 122 51v278q-47 47 -113 47q-55 0 -93 -47t-38 -141z" />
<glyph unicode="&#x120;" horiz-adv-x="682" d="M47 350q0 166 83.5 265.5t222.5 99.5q113 0 183.5 -58.5t85.5 -172.5h-126q-20 142 -143 142q-82 0 -132 -71t-50 -205q0 -135 51 -206t130 -71q44 0 86.5 19.5t71.5 48.5v126h-156v86h268v-353h-112v67q-32 -35 -85 -58.5t-105 -23.5q-130 0 -201.5 97.5t-71.5 267.5z M265 828q0 28 20 47.5t49 19.5t49.5 -19.5t20.5 -47.5t-20.5 -47.5t-49.5 -19.5t-49 19.5t-20 47.5z" />
<glyph unicode="&#x121;" horiz-adv-x="585" d="M47 262q0 129 66 200.5t158 71.5q83 0 134 -61v46h110v-516q0 -111 -67.5 -168.5t-163.5 -57.5q-107 0 -165.5 44t-60.5 128h113q2 -51 29.5 -73.5t83.5 -22.5q121 0 121 137v69q-70 -70 -159 -70q-87 0 -143 71t-56 202zM161 262q0 -95 34 -141.5t88 -46.5q71 0 122 51 v278q-47 47 -113 47q-55 0 -93 -47t-38 -141zM209 662q0 29 20 49t49 20t49 -20t20 -49t-20 -48.5t-49 -19.5t-49 19.5t-20 48.5z" />
<glyph unicode="&#x122;" horiz-adv-x="682" d="M47 350q0 166 83.5 265.5t222.5 99.5q113 0 183.5 -58.5t85.5 -172.5h-126q-20 142 -143 142q-82 0 -132 -71t-50 -205q0 -135 51 -206t130 -71q44 0 86.5 19.5t71.5 48.5v126h-156v86h268v-353h-112v67q-32 -35 -85 -58.5t-105 -23.5q-130 0 -201.5 97.5t-71.5 267.5z M284 -248l20 186h102l-45 -186h-77z" />
<glyph unicode="&#x123;" horiz-adv-x="585" d="M47 262q0 129 66 200.5t158 71.5q83 0 134 -61v46h110v-516q0 -111 -67.5 -168.5t-163.5 -57.5q-107 0 -165.5 44t-60.5 128h113q2 -51 29.5 -73.5t83.5 -22.5q121 0 121 137v69q-70 -70 -159 -70q-87 0 -143 71t-56 202zM161 262q0 -95 34 -141.5t88 -46.5q71 0 122 51 v278q-47 47 -113 47q-55 0 -93 -47t-38 -141zM230 583l45 186h77l-20 -186h-102z" />
<glyph unicode="&#x124;" horiz-adv-x="732" d="M84 0v700h116v-287h332v287h116v-700h-116v324h-332v-324h-116zM164 752l148 141h106l149 -141h-104l-98 66l-97 -66h-104z" />
<glyph unicode="&#x125;" horiz-adv-x="599" d="M-71 782l148 141h106l149 -141h-104l-98 66l-97 -66h-104zM74 0v744h110v-293q81 83 181 83q70 0 115 -41t45 -130v-363h-110v340q0 105 -97 105q-34 0 -71.5 -17.5t-62.5 -42.5v-385h-110z" />
<glyph unicode="&#x126;" horiz-adv-x="732" d="M7 507v89h77v104h116v-104h332v104h116v-104h77v-89h-77v-507h-116v309h-332v-309h-116v507h-77zM200 398h332v109h-332v-109z" />
<glyph unicode="&#x127;" horiz-adv-x="599" d="M0 600v78h74v66h110v-66h118v-78h-118v-149q81 83 181 83q70 0 115 -41t45 -130v-363h-110v340q0 105 -97 105q-34 0 -71.5 -17.5t-62.5 -42.5v-385h-110v600h-74z" />
<glyph unicode="&#x128;" horiz-adv-x="284" d="M-45 794q19 48 49.5 73.5t64.5 25.5q30 0 82.5 -22.5t65.5 -22.5q33 0 53 41l60 -28q-18 -48 -48.5 -73.5t-65.5 -25.5q-30 0 -82 22.5t-66 22.5q-32 0 -53 -41zM84 0v700h116v-700h-116z" />
<glyph unicode="&#x129;" horiz-adv-x="258" d="M-47 621q19 47 50 72.5t63 25.5q30 0 74.5 -22.5t57.5 -22.5q29 0 50 42l60 -29q-18 -48 -49 -73t-63 -25q-30 0 -74.5 22t-58.5 22q-29 0 -50 -41zM74 0v519h110v-519h-110z" />
<glyph unicode="&#x12a;" horiz-adv-x="284" d="M16 784v78h251v-78h-251zM84 0v700h116v-700h-116z" />
<glyph unicode="&#x12b;" horiz-adv-x="258" d="M15 612v78h228v-78h-228zM74 0v519h110v-519h-110z" />
<glyph unicode="&#x12c;" horiz-adv-x="284" d="M-15 893h77q0 -29 20.5 -47.5t59.5 -18.5t59 18.5t20 47.5h77q0 -73 -43.5 -112t-112.5 -39t-113 39t-44 112zM84 0v700h116v-700h-116z" />
<glyph unicode="&#x12d;" horiz-adv-x="258" d="M-17 736h76q0 -35 18 -58t53 -23t52.5 23t17.5 58h76q0 -80 -41.5 -121.5t-104.5 -41.5t-105 41.5t-42 121.5zM74 0v519h110v-519h-110z" />
<glyph unicode="&#x12e;" horiz-adv-x="284" d="M-9 -148q0 86 111 148h-18v700h116v-700q-119 -62 -119 -133q0 -21 14.5 -34t33.5 -13q31 0 71 21v-65q-42 -24 -100 -24q-50 0 -79.5 28.5t-29.5 71.5z" />
<glyph unicode="&#x12f;" horiz-adv-x="258" d="M-25 -148q0 86 111 148h-12v519h110v-519q-119 -62 -119 -133q0 -21 14.5 -34t33.5 -13q31 0 71 21v-65q-42 -24 -100 -24q-50 0 -79.5 28.5t-29.5 71.5zM60 662q0 29 20 49t49 20t49 -20t20 -49t-20 -48.5t-49 -19.5t-49 19.5t-20 48.5z" />
<glyph unicode="&#x130;" horiz-adv-x="284" d="M72 828q0 28 20 47.5t49 19.5t49.5 -19.5t20.5 -47.5t-20.5 -47.5t-49.5 -19.5t-49 19.5t-20 47.5zM84 0v700h116v-700h-116z" />
<glyph unicode="&#x131;" horiz-adv-x="258" d="M74 0v519h110v-519h-110z" />
<glyph unicode="&#x132;" horiz-adv-x="859" d="M84 0v700h116v-700h-116zM313 229h120q3 -85 32 -121t85 -36q119 0 119 120v508h115v-488q0 -113 -68 -170t-166 -57q-230 0 -237 244z" />
<glyph unicode="&#x133;" horiz-adv-x="516" d="M60 662q0 29 20 49t49 20t49 -20t20 -49t-20 -48.5t-49 -19.5t-49 19.5t-20 48.5zM74 0v519h110v-519h-110zM318 662q0 29 20 49t49 20t49 -20t20 -49t-20 -48.5t-49 -19.5t-49 19.5t-20 48.5zM332 -208v727h110v-727h-110z" />
<glyph unicode="&#x134;" horiz-adv-x="575" d="M30 229h120q3 -85 32 -121t85 -36q119 0 119 120v508h115v-488q0 -113 -68 -170t-166 -57q-230 0 -237 244zM242 752l148 141h106l149 -141h-104l-98 66l-97 -66h-104z" />
<glyph unicode="&#x135;" horiz-adv-x="258" d="M-41 582l114 154h113l115 -154h-91l-80 83l-80 -83h-91zM74 -208v727h110v-727h-110z" />
<glyph unicode="&#x136;" horiz-adv-x="627" d="M84 0v700h116v-327l245 327h120l-250 -322l288 -378h-142l-261 357v-357h-116zM225 -248l20 186h102l-45 -186h-77z" />
<glyph unicode="&#x137;" horiz-adv-x="525" d="M74 0v744h110v-462l199 237h116l-206 -232l226 -287h-133l-202 267v-267h-110zM178 -248l20 186h102l-45 -186h-77z" />
<glyph unicode="&#x138;" horiz-adv-x="525" d="M74 0v519h110v-237l199 237h116l-206 -232l226 -287h-133l-202 267v-267h-110z" />
<glyph unicode="&#x139;" horiz-adv-x="521" d="M46 752l132 141h147l-181 -141h-98zM84 0v700h116v-611h270v-89h-386z" />
<glyph unicode="&#x13a;" horiz-adv-x="258" d="M63 782l132 141h147l-181 -141h-98zM74 0v744h110v-744h-110z" />
<glyph unicode="&#x13b;" horiz-adv-x="521" d="M84 0v700h116v-611h270v-89h-386zM199 -248l20 186h102l-45 -186h-77z" />
<glyph unicode="&#x13c;" horiz-adv-x="258" d="M62 -248l20 186h102l-45 -186h-77zM74 0v744h110v-744h-110z" />
<glyph unicode="&#x13d;" horiz-adv-x="521" d="M84 0v700h116v-611h270v-89h-386zM256 577v226h99l-22 -226h-77z" />
<glyph unicode="&#x13e;" horiz-adv-x="320" d="M74 0v744h110v-744h-110zM241 577v226h99l-22 -226h-77z" />
<glyph unicode="&#x13f;" horiz-adv-x="521" d="M84 0v700h116v-611h270v-89h-386zM274 365q0 31 20.5 51.5t51.5 20.5t51.5 -20.5t20.5 -51.5t-20.5 -51.5t-51.5 -20.5t-51.5 20.5t-20.5 51.5z" />
<glyph unicode="&#x140;" horiz-adv-x="368" d="M74 0v744h110v-744h-110zM243 365q0 31 20.5 51.5t51.5 20.5t51.5 -20.5t20.5 -51.5t-20.5 -51.5t-51.5 -20.5t-51.5 20.5t-20.5 51.5z" />
<glyph unicode="&#x141;" horiz-adv-x="521" d="M-3 210v98l87 51v341h116v-273l139 81v-98l-139 -81v-240h270v-89h-386v261z" />
<glyph unicode="&#x142;" horiz-adv-x="276" d="M3 253v88l80 47v356h110v-293l80 47v-87l-80 -47v-364h-110v300z" />
<glyph unicode="&#x143;" horiz-adv-x="719" d="M84 0v700h117l331 -529l-3 142v387h106v-700h-117l-331 529l3 -142v-387h-106zM253 752l132 141h147l-181 -141h-98z" />
<glyph unicode="&#x144;" horiz-adv-x="599" d="M74 0v519h110v-68q81 83 181 83q70 0 115 -41t45 -130v-363h-110v340q0 105 -97 105q-34 0 -71.5 -17.5t-62.5 -42.5v-385h-110zM190 582l102 154h137l-148 -154h-91z" />
<glyph unicode="&#x145;" horiz-adv-x="719" d="M84 0v700h117l331 -529l-3 142v387h106v-700h-117l-331 529l3 -142v-387h-106zM291 -248l20 186h102l-45 -186h-77z" />
<glyph unicode="&#x146;" horiz-adv-x="599" d="M74 0v519h110v-68q81 83 181 83q70 0 115 -41t45 -130v-363h-110v340q0 105 -97 105q-34 0 -71.5 -17.5t-62.5 -42.5v-385h-110zM228 -248l20 186h102l-45 -186h-77z" />
<glyph unicode="&#x147;" horiz-adv-x="719" d="M84 0v700h117l331 -529l-3 142v387h106v-700h-117l-331 529l3 -142v-387h-106zM158 893h104l97 -66l98 66h104l-149 -141h-106z" />
<glyph unicode="&#x148;" horiz-adv-x="599" d="M74 0v519h110v-68q81 83 181 83q70 0 115 -41t45 -130v-363h-110v340q0 105 -97 105q-34 0 -71.5 -17.5t-62.5 -42.5v-385h-110zM118 736h91l80 -82l80 82h91l-115 -154h-113z" />
<glyph unicode="&#x14a;" horiz-adv-x="719" d="M84 0v700h117l331 -529l-3 142v387h106v-700q0 -62 -19 -107.5t-52 -69.5t-71.5 -35t-83.5 -11q-48 0 -82 17v82q39 -12 82 -12q58 0 88 26.5t30 96.5l-340 542l3 -142v-387h-106z" />
<glyph unicode="&#x14b;" horiz-adv-x="599" d="M74 0v519h110v-68q81 83 181 83q70 0 115 -41t45 -130v-571h-110v548q0 105 -97 105q-34 0 -71.5 -17.5t-62.5 -42.5v-385h-110z" />
<glyph unicode="&#x14c;" horiz-adv-x="741" d="M47 350q0 166 88 265.5t236 99.5t235.5 -99.5t87.5 -265.5t-87.5 -265.5t-235.5 -99.5t-236 99.5t-88 265.5zM171 350q0 -135 54 -205.5t146 -70.5t146 70.5t54 205.5t-54 205.5t-146 70.5t-146 -70.5t-54 -205.5zM208 784v78h325v-78h-325z" />
<glyph unicode="&#x14d;" horiz-adv-x="589" d="M47 259q0 125 65.5 200t181.5 75t182 -75t66 -200t-66 -199.5t-182 -74.5t-181.5 74.5t-65.5 199.5zM143 612v78h302v-78h-302zM161 259q0 -100 35.5 -149t97.5 -49t97.5 49t35.5 149t-35.5 149.5t-97.5 49.5t-97.5 -49.5t-35.5 -149.5z" />
<glyph unicode="&#x14e;" horiz-adv-x="741" d="M47 350q0 166 88 265.5t236 99.5t235.5 -99.5t87.5 -265.5t-87.5 -265.5t-235.5 -99.5t-236 99.5t-88 265.5zM171 350q0 -135 54 -205.5t146 -70.5t146 70.5t54 205.5t-54 205.5t-146 70.5t-146 -70.5t-54 -205.5zM213 893h77q0 -29 20.5 -47.5t59.5 -18.5t59 18.5 t20 47.5h77q0 -73 -43.5 -112t-112.5 -39t-113 39t-44 112z" />
<glyph unicode="&#x14f;" horiz-adv-x="589" d="M47 259q0 125 65.5 200t181.5 75t182 -75t66 -200t-66 -199.5t-182 -74.5t-181.5 74.5t-65.5 199.5zM147 736h76q0 -35 18 -58t53 -23t52.5 23t17.5 58h76q0 -80 -41.5 -121.5t-104.5 -41.5t-105 41.5t-42 121.5zM161 259q0 -100 35.5 -149t97.5 -49t97.5 49t35.5 149 t-35.5 149.5t-97.5 49.5t-97.5 -49.5t-35.5 -149.5z" />
<glyph unicode="&#x150;" horiz-adv-x="741" d="M47 350q0 166 88 265.5t236 99.5t235.5 -99.5t87.5 -265.5t-87.5 -265.5t-235.5 -99.5t-236 99.5t-88 265.5zM171 350q0 -135 54 -205.5t146 -70.5t146 70.5t54 205.5t-54 205.5t-146 70.5t-146 -70.5t-54 -205.5zM184 752l109 141h137l-155 -141h-91zM376 752l109 141 h137l-155 -141h-91z" />
<glyph unicode="&#x151;" horiz-adv-x="589" d="M47 259q0 125 65.5 200t181.5 75t182 -75t66 -200t-66 -199.5t-182 -74.5t-181.5 74.5t-65.5 199.5zM138 582l82 154h128l-123 -154h-87zM161 259q0 -100 35.5 -149t97.5 -49t97.5 49t35.5 149t-35.5 149.5t-97.5 49.5t-97.5 -49.5t-35.5 -149.5zM310 582l82 154h129 l-124 -154h-87z" />
<glyph unicode="&#x152;" horiz-adv-x="962" d="M56 350q0 164 97.5 257t260.5 93h495v-89h-303v-198h283v-89h-283v-235h303v-89h-495q-163 0 -260.5 93t-97.5 257zM180 350q0 -133 63.5 -197t170.5 -64h77v522h-77q-107 0 -170.5 -64t-63.5 -197z" />
<glyph unicode="&#x153;" horiz-adv-x="933" d="M47 259q0 125 65.5 200t181.5 75q127 0 189 -99q28 47 75 73t100 26q115 0 175 -75.5t52 -214.5h-346q4 -183 120 -183q88 0 104 86h114q-9 -72 -67.5 -117t-150.5 -45q-125 0 -179 95q-60 -95 -186 -95q-116 0 -181.5 74.5t-65.5 199.5zM161 259q0 -100 35.5 -149 t97.5 -49t97.5 49t35.5 149t-35.5 149.5t-97.5 49.5t-97.5 -49.5t-35.5 -149.5zM542 313h228q-1 73 -30.5 109.5t-81.5 36.5q-99 0 -116 -146z" />
<glyph unicode="&#x154;" horiz-adv-x="620" d="M84 0v700h221q107 0 180.5 -54t73.5 -162q0 -82 -43 -132.5t-114 -70.5l194 -281h-137l-172 268h-87v-268h-116zM171 752l132 141h147l-181 -141h-98zM200 353h105q62 0 99 31.5t37 99.5q0 67 -37 98t-99 31h-105v-260z" />
<glyph unicode="&#x155;" horiz-adv-x="416" d="M74 0v519h110v-92q29 51 67.5 79t79.5 28q36 0 62 -24v-93q-38 16 -71 16q-42 0 -79.5 -25t-58.5 -61v-347h-110zM114 582l102 154h137l-148 -154h-91z" />
<glyph unicode="&#x156;" horiz-adv-x="620" d="M84 0v700h221q107 0 180.5 -54t73.5 -162q0 -82 -43 -132.5t-114 -70.5l194 -281h-137l-172 268h-87v-268h-116zM200 353h105q62 0 99 31.5t37 99.5q0 67 -37 98t-99 31h-105v-260zM235 -248l20 186h102l-45 -186h-77z" />
<glyph unicode="&#x157;" horiz-adv-x="416" d="M62 -248l20 186h102l-45 -186h-77zM74 0v519h110v-92q29 51 67.5 79t79.5 28q36 0 62 -24v-93q-38 16 -71 16q-42 0 -79.5 -25t-58.5 -61v-347h-110z" />
<glyph unicode="&#x158;" horiz-adv-x="620" d="M82 893h104l97 -66l98 66h104l-149 -141h-106zM84 0v700h221q107 0 180.5 -54t73.5 -162q0 -82 -43 -132.5t-114 -70.5l194 -281h-137l-172 268h-87v-268h-116zM200 353h105q62 0 99 31.5t37 99.5q0 67 -37 98t-99 31h-105v-260z" />
<glyph unicode="&#x159;" horiz-adv-x="416" d="M46 736h91l80 -82l80 82h91l-115 -154h-113zM74 0v519h110v-92q29 51 67.5 79t79.5 28q36 0 62 -24v-93q-38 16 -71 16q-42 0 -79.5 -25t-58.5 -61v-347h-110z" />
<glyph unicode="&#x15a;" horiz-adv-x="613" d="M47 209h121q11 -137 147 -137q59 0 98.5 30t39.5 86q0 70 -75 98q-23 9 -94 24l-46.5 10.5t-44 13t-44 18t-36.5 24t-31.5 34t-18.5 44.5t-8 58q0 91 68.5 147t175.5 56q122 0 188 -54.5t72 -160.5h-122q-5 68 -40 98t-98 30q-58 0 -94 -26t-36 -77q0 -22 5 -39t20 -29.5 t24 -19.5t36.5 -15t36.5 -10t43 -9q32 -7 46.5 -10t44.5 -12t45 -17.5t36.5 -24t32.5 -33.5t19 -44.5t8 -58.5q0 -94 -73.5 -156t-177.5 -62q-123 0 -193.5 56.5t-74.5 167.5zM180 752l132 141h147l-181 -141h-98z" />
<glyph unicode="&#x15b;" horiz-adv-x="512" d="M44 150h111q2 -45 28 -68t83 -23q45 0 73 20.5t28 60.5q0 14 -4 24.5t-16 18.5l-19.5 13t-28.5 10t-28 6.5t-32 6.5q-35 7 -54 11t-49.5 16t-46.5 26.5t-29 41t-13 60.5q0 75 56.5 117.5t146.5 42.5q201 0 206 -151h-111q-3 41 -26 59t-72 18q-44 0 -71 -17.5t-27 -52.5 q0 -26 18 -43t35.5 -22t59.5 -13q6 -1 9 -2q33 -6 45.5 -9t42.5 -11t44 -17.5t32 -25t25.5 -38t7.5 -51.5q0 -77 -58 -125t-147 -48q-109 0 -163 43.5t-56 121.5zM146 582l102 154h137l-148 -154h-91z" />
<glyph unicode="&#x15c;" horiz-adv-x="613" d="M47 209h121q11 -137 147 -137q59 0 98.5 30t39.5 86q0 70 -75 98q-23 9 -94 24l-46.5 10.5t-44 13t-44 18t-36.5 24t-31.5 34t-18.5 44.5t-8 58q0 91 68.5 147t175.5 56q122 0 188 -54.5t72 -160.5h-122q-5 68 -40 98t-98 30q-58 0 -94 -26t-36 -77q0 -22 5 -39t20 -29.5 t24 -19.5t36.5 -15t36.5 -10t43 -9q32 -7 46.5 -10t44.5 -12t45 -17.5t36.5 -24t32.5 -33.5t19 -44.5t8 -58.5q0 -94 -73.5 -156t-177.5 -62q-123 0 -193.5 56.5t-74.5 167.5zM105 752l148 141h106l149 -141h-104l-98 66l-97 -66h-104z" />
<glyph unicode="&#x15d;" horiz-adv-x="512" d="M44 150h111q2 -45 28 -68t83 -23q45 0 73 20.5t28 60.5q0 14 -4 24.5t-16 18.5l-19.5 13t-28.5 10t-28 6.5t-32 6.5q-35 7 -54 11t-49.5 16t-46.5 26.5t-29 41t-13 60.5q0 75 56.5 117.5t146.5 42.5q201 0 206 -151h-111q-3 41 -26 59t-72 18q-44 0 -71 -17.5t-27 -52.5 q0 -26 18 -43t35.5 -22t59.5 -13q6 -1 9 -2q33 -6 45.5 -9t42.5 -11t44 -17.5t32 -25t25.5 -38t7.5 -51.5q0 -77 -58 -125t-147 -48q-109 0 -163 43.5t-56 121.5zM82 582l114 154h113l115 -154h-91l-80 83l-80 -83h-91z" />
<glyph unicode="&#x15e;" horiz-adv-x="613" d="M47 209h121q11 -137 147 -137q59 0 98.5 30t39.5 86q0 70 -75 98q-23 9 -94 24l-46.5 10.5t-44 13t-44 18t-36.5 24t-31.5 34t-18.5 44.5t-8 58q0 91 68.5 147t175.5 56q122 0 188 -54.5t72 -160.5h-122q-5 68 -40 98t-98 30q-58 0 -94 -26t-36 -77q0 -22 5 -39t20 -29.5 t24 -19.5t36.5 -15t36.5 -10t43 -9q32 -7 46.5 -10t44.5 -12t45 -17.5t36.5 -24t32.5 -33.5t19 -44.5t8 -58.5q0 -90 -67 -150.5t-165 -66.5l-38 -51q46 3 79 -18.5t33 -65.5q0 -46 -37 -72.5t-89 -26.5q-43 0 -72 14v56q29 -13 64 -13q20 0 36 10t16 29t-15.5 28.5 t-36.5 9.5q-20 0 -40 -6l-21 36l54 71q-102 11 -159 67t-61 155z" />
<glyph unicode="&#x15f;" horiz-adv-x="512" d="M44 150h111q2 -45 28 -68t83 -23q45 0 73 20.5t28 60.5q0 14 -4 24.5t-16 18.5l-19.5 13t-28.5 10t-28 6.5t-32 6.5q-35 7 -54 11t-49.5 16t-46.5 26.5t-29 41t-13 60.5q0 75 56.5 117.5t146.5 42.5q201 0 206 -151h-111q-3 41 -26 59t-72 18q-44 0 -71 -17.5t-27 -52.5 q0 -26 18 -43t35.5 -22t59.5 -13q6 -1 9 -2q33 -6 45.5 -9t42.5 -11t44 -17.5t32 -25t25.5 -38t7.5 -51.5q0 -73 -52 -120t-135 -52l-38 -51q46 3 79 -18.5t33 -65.5q0 -46 -37 -72.5t-89 -26.5q-43 0 -72 14v56q29 -13 64 -13q20 0 36 10t16 29t-15.5 28.5t-36.5 9.5 t-40 -6l-21 36l54 72q-167 19 -170 162z" />
<glyph unicode="&#x160;" horiz-adv-x="613" d="M47 209h121q11 -137 147 -137q59 0 98.5 30t39.5 86q0 70 -75 98q-23 9 -94 24l-46.5 10.5t-44 13t-44 18t-36.5 24t-31.5 34t-18.5 44.5t-8 58q0 91 68.5 147t175.5 56q122 0 188 -54.5t72 -160.5h-122q-5 68 -40 98t-98 30q-58 0 -94 -26t-36 -77q0 -22 5 -39t20 -29.5 t24 -19.5t36.5 -15t36.5 -10t43 -9q32 -7 46.5 -10t44.5 -12t45 -17.5t36.5 -24t32.5 -33.5t19 -44.5t8 -58.5q0 -94 -73.5 -156t-177.5 -62q-123 0 -193.5 56.5t-74.5 167.5zM95 893h104l97 -66l98 66h104l-149 -141h-106z" />
<glyph unicode="&#x161;" horiz-adv-x="512" d="M44 150h111q2 -45 28 -68t83 -23q45 0 73 20.5t28 60.5q0 14 -4 24.5t-16 18.5l-19.5 13t-28.5 10t-28 6.5t-32 6.5q-35 7 -54 11t-49.5 16t-46.5 26.5t-29 41t-13 60.5q0 75 56.5 117.5t146.5 42.5q201 0 206 -151h-111q-3 41 -26 59t-72 18q-44 0 -71 -17.5t-27 -52.5 q0 -26 18 -43t35.5 -22t59.5 -13q6 -1 9 -2q33 -6 45.5 -9t42.5 -11t44 -17.5t32 -25t25.5 -38t7.5 -51.5q0 -77 -58 -125t-147 -48q-109 0 -163 43.5t-56 121.5zM75 736h91l80 -82l80 82h91l-115 -154h-113z" />
<glyph unicode="&#x162;" horiz-adv-x="552" d="M30 611v89h492v-89h-188v-611h-15l-49 -65q46 3 79 -18.5t33 -65.5q0 -46 -37 -72.5t-89 -26.5q-43 0 -72 14v56q29 -13 64 -13q20 0 36 10t16 29t-15.5 28.5t-36.5 9.5q-20 0 -40 -6l-21 36l63 84h-32v611h-188z" />
<glyph unicode="&#x163;" horiz-adv-x="398" d="M20 442v77h87v141h110v-141h141v-77h-141v-292q0 -86 68 -86q27 0 80 15v-71q-51 -23 -116 -23h-2l-38 -50q46 3 79 -18.5t33 -65.5q0 -46 -37 -72.5t-89 -26.5q-43 0 -72 14v56q29 -13 64 -13q20 0 36 10t16 29t-15.5 28.5t-36.5 9.5t-40 -6l-21 36l60 80 q-79 32 -79 133v313h-87z" />
<glyph unicode="&#x164;" horiz-adv-x="552" d="M30 611v89h492v-89h-188v-611h-116v611h-188zM75 893h104l97 -66l98 66h104l-149 -141h-106z" />
<glyph unicode="&#x165;" horiz-adv-x="398" d="M20 442v77h87v141h110v-141h141v-77h-141v-292q0 -86 68 -86q27 0 80 15v-71q-51 -23 -116 -23q-64 0 -103 36t-39 108v313h-87zM267 577v226h99l-22 -226h-77z" />
<glyph unicode="&#x166;" horiz-adv-x="552" d="M30 611v89h492v-89h-188v-219h131v-89h-131v-303h-116v303h-128v89h128v219h-188z" />
<glyph unicode="&#x167;" horiz-adv-x="398" d="M20 260v78h87v104h-87v77h87v141h110v-141h141v-77h-141v-104h105v-78h-105v-110q0 -86 68 -86q27 0 80 15v-71q-51 -23 -116 -23q-64 0 -103 36t-39 108v131h-87z" />
<glyph unicode="&#x168;" horiz-adv-x="705" d="M74 230v470h116v-450q0 -88 37.5 -132t123.5 -44q85 0 126.5 41.5t41.5 114.5v470h105v-450q0 -126 -73.5 -195.5t-199.5 -69.5q-127 0 -202 63.5t-75 181.5zM162 794q19 48 49.5 73.5t64.5 25.5q30 0 82.5 -22.5t65.5 -22.5q32 0 53 41l60 -28q-18 -48 -48.5 -73.5 t-65.5 -25.5q-30 0 -82 22.5t-66 22.5q-33 0 -53 -41z" />
<glyph unicode="&#x169;" horiz-adv-x="594" d="M74 155v364h110v-341q0 -104 94 -104q34 0 71 17.5t61 42.5v385h110v-519h-110v68q-81 -83 -178 -83q-70 0 -114 40.5t-44 129.5zM120 621q19 47 50 72.5t63 25.5q30 0 74.5 -22.5t57.5 -22.5q29 0 50 42l60 -29q-18 -48 -49 -73t-63 -25q-30 0 -74.5 22t-58.5 22 q-30 0 -50 -41z" />
<glyph unicode="&#x16a;" horiz-adv-x="705" d="M74 230v470h116v-450q0 -88 37.5 -132t123.5 -44q85 0 126.5 41.5t41.5 114.5v470h105v-450q0 -126 -73.5 -195.5t-199.5 -69.5q-127 0 -202 63.5t-75 181.5zM186 784v78h325v-78h-325z" />
<glyph unicode="&#x16b;" horiz-adv-x="594" d="M74 155v364h110v-341q0 -104 94 -104q34 0 71 17.5t61 42.5v385h110v-519h-110v68q-81 -83 -178 -83q-70 0 -114 40.5t-44 129.5zM146 612v78h302v-78h-302z" />
<glyph unicode="&#x16c;" horiz-adv-x="705" d="M74 230v470h116v-450q0 -88 37.5 -132t123.5 -44q85 0 126.5 41.5t41.5 114.5v470h105v-450q0 -126 -73.5 -195.5t-199.5 -69.5q-127 0 -202 63.5t-75 181.5zM192 893h77q0 -29 20.5 -47.5t59.5 -18.5t59 18.5t20 47.5h77q0 -73 -43.5 -112t-112.5 -39t-113 39t-44 112z " />
<glyph unicode="&#x16d;" horiz-adv-x="594" d="M74 155v364h110v-341q0 -104 94 -104q34 0 71 17.5t61 42.5v385h110v-519h-110v68q-81 -83 -178 -83q-70 0 -114 40.5t-44 129.5zM150 736h76q0 -35 18 -58t53 -23t52.5 23t17.5 58h76q0 -80 -41.5 -121.5t-104.5 -41.5t-105 41.5t-42 121.5z" />
<glyph unicode="&#x16e;" horiz-adv-x="705" d="M74 230v470h116v-450q0 -88 37.5 -132t123.5 -44q85 0 126.5 41.5t41.5 114.5v470h105v-450q0 -126 -73.5 -195.5t-199.5 -69.5q-127 0 -202 63.5t-75 181.5zM231 821q0 45 33.5 72t83.5 27q51 0 84.5 -27t33.5 -72t-33.5 -72t-84.5 -27q-50 0 -83.5 27t-33.5 72z M315 809q11 -34 46 -22q32 11 21 46q-12 34 -46 22q-34 -10 -21 -46z" />
<glyph unicode="&#x16f;" horiz-adv-x="594" d="M74 155v364h110v-341q0 -104 94 -104q34 0 71 17.5t61 42.5v385h110v-519h-110v68q-81 -83 -178 -83q-70 0 -114 40.5t-44 129.5zM179 659q0 45 33.5 71t83.5 26q51 0 84.5 -26t33.5 -71t-33.5 -71.5t-84.5 -26.5q-50 0 -83.5 26.5t-33.5 71.5zM263 648q5 -16 18 -22.5 t28 -1.5q32 10 21 45q-12 34 -46 24t-21 -45z" />
<glyph unicode="&#x170;" horiz-adv-x="705" d="M74 230v470h116v-450q0 -88 37.5 -132t123.5 -44q85 0 126.5 41.5t41.5 114.5v470h105v-450q0 -126 -73.5 -195.5t-199.5 -69.5q-127 0 -202 63.5t-75 181.5zM163 752l109 141h137l-155 -141h-91zM355 752l109 141h137l-155 -141h-91z" />
<glyph unicode="&#x171;" horiz-adv-x="594" d="M74 155v364h110v-341q0 -104 94 -104q34 0 71 17.5t61 42.5v385h110v-519h-110v68q-81 -83 -178 -83q-70 0 -114 40.5t-44 129.5zM138 582l82 154h128l-123 -154h-87zM310 582l82 154h129l-124 -154h-87z" />
<glyph unicode="&#x172;" horiz-adv-x="705" d="M74 230v470h116v-450q0 -88 37.5 -132t123.5 -44q85 0 126.5 41.5t41.5 114.5v470h105v-450q0 -101 -48 -166.5t-134 -87.5q-111 -60 -111 -129q0 -21 14.5 -34t33.5 -13q31 0 71 21v-65q-42 -24 -100 -24q-50 0 -79.5 28.5t-29.5 71.5q0 76 87 134q-118 5 -186 68 t-68 176z" />
<glyph unicode="&#x173;" horiz-adv-x="594" d="M74 155v364h110v-341q0 -104 94 -104q34 0 71 17.5t61 42.5v385h110v-519q-119 -62 -119 -133q0 -21 14.5 -34t33.5 -13q31 0 71 21v-65q-42 -24 -100 -24q-50 0 -79.5 28.5t-29.5 71.5q0 86 111 148h-12v68q-81 -83 -178 -83q-70 0 -114 40.5t-44 129.5z" />
<glyph unicode="&#x174;" horiz-adv-x="929" d="M10 700h124l104 -415l34 -149l35 149l108 415h120l112 -415l36 -152l32 152l95 415h109l-182 -700h-121l-111 401l-37 151l-36 -151l-108 -401h-121zM263 752l148 141h106l149 -141h-104l-98 66l-97 -66h-104z" />
<glyph unicode="&#x175;" horiz-adv-x="805" d="M17 519h117l75 -257l38 -146l39 146l72 257h100l77 -257l40 -146l38 146l72 257h103l-166 -519h-104l-74 240l-40 146l-40 -146l-70 -240h-106zM231 582l114 154h113l115 -154h-91l-80 83l-80 -83h-91z" />
<glyph unicode="&#x176;" horiz-adv-x="599" d="M24 700h125l165 -353l155 353h106l-213 -445v-255h-116v255zM98 752l148 141h106l149 -141h-104l-98 66l-97 -66h-104z" />
<glyph unicode="&#x177;" horiz-adv-x="520" d="M17 519h121l84 -238l47 -146l46 146l84 238h104l-267 -727h-102l81 212zM98 582l114 154h113l115 -154h-91l-80 83l-80 -83h-91z" />
<glyph unicode="&#x178;" horiz-adv-x="599" d="M24 700h125l165 -353l155 353h106l-213 -445v-255h-116v255zM123 828q0 28 19.5 47t48.5 19q28 0 47.5 -19t19.5 -47t-19.5 -46.5t-47.5 -18.5q-29 0 -48.5 18.5t-19.5 46.5zM340 828q0 28 19.5 47t48.5 19t48.5 -19t19.5 -47t-19.5 -46.5t-48.5 -18.5t-48.5 18.5 t-19.5 46.5z" />
<glyph unicode="&#x179;" horiz-adv-x="541" d="M40 0v89l331 522h-324v89h454v-89l-331 -522h331v-89h-461zM171 752l132 141h147l-181 -141h-98z" />
<glyph unicode="&#x17a;" horiz-adv-x="449" d="M37 0v77l256 365h-246v77h365v-77l-257 -365h257v-77h-375zM138 582l102 154h137l-148 -154h-91z" />
<glyph unicode="&#x17b;" horiz-adv-x="541" d="M40 0v89l331 522h-324v89h454v-89l-331 -522h331v-89h-461zM201 828q0 28 20 47.5t49 19.5t49.5 -19.5t20.5 -47.5t-20.5 -47.5t-49.5 -19.5t-49 19.5t-20 47.5z" />
<glyph unicode="&#x17c;" horiz-adv-x="449" d="M37 0v77l256 365h-246v77h365v-77l-257 -365h257v-77h-375zM155 662q0 29 20 49t49 20t49 -20t20 -49t-20 -48.5t-49 -19.5t-49 19.5t-20 48.5z" />
<glyph unicode="&#x17d;" horiz-adv-x="541" d="M40 0v89l331 522h-324v89h454v-89l-331 -522h331v-89h-461zM69 893h104l97 -66l98 66h104l-149 -141h-106z" />
<glyph unicode="&#x17e;" horiz-adv-x="449" d="M37 0v77l256 365h-246v77h365v-77l-257 -365h257v-77h-375zM56 736h91l80 -82l80 82h91l-115 -154h-113z" />
<glyph unicode="&#x17f;" horiz-adv-x="309" d="M95 0v600q0 79 43.5 119t123.5 40q54 0 87 -17v-74q-41 9 -65 9q-79 0 -79 -76v-601h-110z" />
<glyph unicode="&#x192;" horiz-adv-x="622" d="M-46 -36h121q11 -100 89 -100q37 0 63 26.5t26 83.5v226h-157v88h157v217q0 97 57.5 153.5t147.5 56.5q96 0 150.5 -48.5t59.5 -139.5h-121q-11 101 -89 101q-37 0 -63 -26.5t-26 -83.5v-230h157v-88h-157v-213q0 -97 -57.5 -153.5t-147.5 -56.5q-96 0 -150.5 48.5 t-59.5 138.5z" />
<glyph unicode="&#x1fc;" horiz-adv-x="955" d="M7 0l470 700h425v-89h-303v-198h283v-89h-283v-235h303v-89h-419v181h-232l-117 -181h-127zM307 268h176v278l-81 -131zM504 752l132 141h147l-181 -141h-98z" />
<glyph unicode="&#x1fd;" horiz-adv-x="882" d="M47 123q0 72 60 120t190 48q23 0 79 -4v59q0 112 -92 112q-53 0 -79 -26t-28 -86h-112q1 92 59 140t160 48q114 0 162 -72q62 72 161 72q115 0 175 -75.5t52 -214.5h-346q3 -183 120 -183q88 0 104 86h114q-9 -72 -67.5 -117t-150.5 -45q-133 0 -191 101 q-96 -101 -212 -101q-74 0 -116 37.5t-42 100.5zM158 139q0 -37 24 -55t63 -18t78.5 22.5t68.5 54.5q-11 36 -14 79q-36 4 -74 4q-146 0 -146 -87zM296 582l102 154h137l-148 -154h-91zM491 313h228q-1 73 -30.5 109.5t-81.5 36.5q-46 0 -77 -35.5t-39 -110.5z" />
<glyph unicode="&#x218;" horiz-adv-x="613" d="M47 209h121q11 -137 147 -137q59 0 98.5 30t39.5 86q0 70 -75 98q-23 9 -94 24l-46.5 10.5t-44 13t-44 18t-36.5 24t-31.5 34t-18.5 44.5t-8 58q0 91 68.5 147t175.5 56q122 0 188 -54.5t72 -160.5h-122q-5 68 -40 98t-98 30q-58 0 -94 -26t-36 -77q0 -22 5 -39t20 -29.5 t24 -19.5t36.5 -15t36.5 -10t43 -9q32 -7 46.5 -10t44.5 -12t45 -17.5t36.5 -24t32.5 -33.5t19 -44.5t8 -58.5q0 -94 -73.5 -156t-177.5 -62q-123 0 -193.5 56.5t-74.5 167.5zM238 -248l20 186h102l-45 -186h-77z" />
<glyph unicode="&#x219;" horiz-adv-x="512" d="M44 150h111q2 -45 28 -68t83 -23q45 0 73 20.5t28 60.5q0 14 -4 24.5t-16 18.5l-19.5 13t-28.5 10t-28 6.5t-32 6.5q-35 7 -54 11t-49.5 16t-46.5 26.5t-29 41t-13 60.5q0 75 56.5 117.5t146.5 42.5q201 0 206 -151h-111q-3 41 -26 59t-72 18q-44 0 -71 -17.5t-27 -52.5 q0 -26 18 -43t35.5 -22t59.5 -13q6 -1 9 -2q33 -6 45.5 -9t42.5 -11t44 -17.5t32 -25t25.5 -38t7.5 -51.5q0 -77 -58 -125t-147 -48q-109 0 -163 43.5t-56 121.5zM195 -248l20 186h102l-45 -186h-77z" />
<glyph unicode="&#x21a;" horiz-adv-x="552" d="M30 611v89h492v-89h-188v-611h-116v611h-188zM205 -248l20 186h102l-45 -186h-77z" />
<glyph unicode="&#x21b;" horiz-adv-x="398" d="M20 442v77h87v141h110v-141h141v-77h-141v-292q0 -86 68 -86q27 0 80 15v-71q-51 -23 -116 -23q-64 0 -103 36t-39 108v313h-87zM137 -248l20 186h102l-45 -186h-77z" />
<glyph unicode="&#x2c6;" horiz-adv-x="442" d="M50 582l114 154h113l115 -154h-91l-80 83l-80 -83h-91z" />
<glyph unicode="&#x2c7;" horiz-adv-x="442" d="M50 736h91l80 -82l80 82h91l-115 -154h-113z" />
<glyph unicode="&#x2d8;" horiz-adv-x="393" d="M50 736h76q0 -35 18 -58t53 -23t52.5 23t17.5 58h76q0 -80 -41.5 -121.5t-104.5 -41.5t-105 41.5t-42 121.5z" />
<glyph unicode="&#x2d9;" horiz-adv-x="238" d="M50 662q0 29 20 49t49 20t49 -20t20 -49t-20 -48.5t-49 -19.5t-49 19.5t-20 48.5z" />
<glyph unicode="&#x2da;" horiz-adv-x="335" d="M50 659q0 45 33.5 71t83.5 26q51 0 84.5 -26t33.5 -71t-33.5 -71.5t-84.5 -26.5q-50 0 -83.5 26.5t-33.5 71.5zM134 648q5 -16 18 -22.5t28 -1.5q32 10 21 45q-12 34 -46 24t-21 -45z" />
<glyph unicode="&#x2db;" horiz-adv-x="309" d="M50 -148q0 86 111 148h98q-119 -62 -119 -133q0 -21 14.5 -34t33.5 -13q31 0 71 21v-65q-42 -24 -100 -24q-50 0 -79.5 28.5t-29.5 71.5z" />
<glyph unicode="&#x2dc;" horiz-adv-x="455" d="M50 621q19 47 50 72.5t63 25.5q30 0 74.5 -22.5t57.5 -22.5q29 0 50 42l60 -29q-18 -48 -49 -73t-63 -25q-30 0 -74.5 22t-58.5 22q-30 0 -50 -41z" />
<glyph unicode="&#x2dd;" horiz-adv-x="481" d="M50 582l82 154h128l-123 -154h-87zM222 582l82 154h129l-124 -154h-87z" />
<glyph unicode="&#x326;" horiz-adv-x="0" d="M-172 -248l20 186h102l-45 -186h-77z" />
<glyph unicode="&#x3c0;" horiz-adv-x="599" d="M74 0v519h451v-519h-110v442h-231v-442h-110z" />
<glyph unicode="&#xe3f;" horiz-adv-x="635" d="M84 0v700h166v120h105v-122q90 -8 147 -50t57 -126q0 -54 -31.5 -98t-80.5 -58q64 -11 102.5 -50.5t38.5 -109.5q0 -94 -65 -147t-168 -58v-121h-105v120h-166zM200 87h50v224h-50v-224zM200 396h50v217h-50v-217zM355 88q114 9 114 118q0 95 -114 104v-222zM355 401 q86 20 86 112q0 84 -86 97v-209z" />
<glyph unicode="&#x1e80;" horiz-adv-x="929" d="M10 700h124l104 -415l34 -149l35 149l108 415h120l112 -415l36 -152l32 152l95 415h109l-182 -700h-121l-111 401l-37 151l-36 -151l-108 -401h-121zM299 893h147l132 -141h-98z" />
<glyph unicode="&#x1e81;" horiz-adv-x="805" d="M17 519h117l75 -257l38 -146l39 146l72 257h100l77 -257l40 -146l38 146l72 257h103l-166 -519h-104l-74 240l-40 146l-40 -146l-70 -240h-106zM220 736h137l102 -154h-91z" />
<glyph unicode="&#x1e82;" horiz-adv-x="929" d="M10 700h124l104 -415l34 -149l35 149l108 415h120l112 -415l36 -152l32 152l95 415h109l-182 -700h-121l-111 401l-37 151l-36 -151l-108 -401h-121zM351 752l132 141h147l-181 -141h-98z" />
<glyph unicode="&#x1e83;" horiz-adv-x="805" d="M17 519h117l75 -257l38 -146l39 146l72 257h100l77 -257l40 -146l38 146l72 257h103l-166 -519h-104l-74 240l-40 146l-40 -146l-70 -240h-106zM353 582l102 154h137l-148 -154h-91z" />
<glyph unicode="&#x1e84;" horiz-adv-x="929" d="M10 700h124l104 -415l34 -149l35 149l108 415h120l112 -415l36 -152l32 152l95 415h109l-182 -700h-121l-111 401l-37 151l-36 -151l-108 -401h-121zM287 828q0 28 19.5 47t48.5 19q28 0 47.5 -19t19.5 -47t-19.5 -46.5t-47.5 -18.5q-29 0 -48.5 18.5t-19.5 46.5z M504 828q0 28 19.5 47t48.5 19t48.5 -19t19.5 -47t-19.5 -46.5t-48.5 -18.5t-48.5 18.5t-19.5 46.5z" />
<glyph unicode="&#x1e85;" horiz-adv-x="805" d="M17 519h117l75 -257l38 -146l39 146l72 257h100l77 -257l40 -146l38 146l72 257h103l-166 -519h-104l-74 240l-40 146l-40 -146l-70 -240h-106zM237 662q0 28 19.5 47.5t47.5 19.5t48 -19.5t20 -47.5t-20 -47.5t-48 -19.5t-47.5 19.5t-19.5 47.5zM433 662q0 28 19.5 47.5 t47.5 19.5t48 -19.5t20 -47.5t-20 -47.5t-48 -19.5t-47.5 19.5t-19.5 47.5z" />
<glyph unicode="&#x1e9e;" horiz-adv-x="681" d="M84 0v399q0 156 72.5 230.5t202.5 74.5h241v-88l-151 -220q56 -11 96.5 -36.5t60 -58t27.5 -62t8 -58.5q0 -94 -60.5 -145t-144.5 -51q-86 0 -135 40.5t-51 111.5h116q6 -69 73 -69q38 0 61 26.5t23 80.5q0 61 -42 100.5t-120 39.5h-30v89l146 212h-118q-159 0 -159 -207 v-409h-116z" />
<glyph unicode="&#x1ef2;" horiz-adv-x="599" d="M24 700h125l165 -353l155 353h106l-213 -445v-255h-116v255zM131 893h147l132 -141h-98z" />
<glyph unicode="&#x1ef3;" horiz-adv-x="520" d="M17 519h121l84 -238l47 -146l46 146l84 238h104l-267 -727h-102l81 212zM104 736h137l102 -154h-91z" />
<glyph unicode="&#x2000;" horiz-adv-x="467" />
<glyph unicode="&#x2001;" horiz-adv-x="935" />
<glyph unicode="&#x2002;" horiz-adv-x="467" />
<glyph unicode="&#x2003;" horiz-adv-x="935" />
<glyph unicode="&#x2004;" horiz-adv-x="311" />
<glyph unicode="&#x2005;" horiz-adv-x="233" />
<glyph unicode="&#x2006;" horiz-adv-x="155" />
<glyph unicode="&#x2007;" horiz-adv-x="155" />
<glyph unicode="&#x2008;" horiz-adv-x="116" />
<glyph unicode="&#x2009;" horiz-adv-x="187" />
<glyph unicode="&#x200a;" horiz-adv-x="51" />
<glyph unicode="&#x2010;" horiz-adv-x="343" d="M50 232v89h243v-89h-243z" />
<glyph unicode="&#x2011;" horiz-adv-x="343" d="M50 232v89h243v-89h-243z" />
<glyph unicode="&#x2012;" horiz-adv-x="343" d="M50 232v89h243v-89h-243z" />
<glyph unicode="&#x2013;" horiz-adv-x="500" d="M40 232v89h420v-89h-420z" />
<glyph unicode="&#x2014;" horiz-adv-x="1000" d="M40 232v89h920v-89h-920z" />
<glyph unicode="&#x2018;" horiz-adv-x="249" d="M31 601l95 259h92l-73 -259h-114z" />
<glyph unicode="&#x2019;" horiz-adv-x="249" d="M31 601l73 259h114l-95 -259h-92z" />
<glyph unicode="&#x201a;" horiz-adv-x="249" d="M31 -160l73 259h114l-95 -259h-92z" />
<glyph unicode="&#x201c;" horiz-adv-x="420" d="M31 601l95 259h92l-73 -259h-114zM202 601l95 259h92l-73 -259h-114z" />
<glyph unicode="&#x201d;" horiz-adv-x="420" d="M31 601l73 259h114l-95 -259h-92zM202 601l73 259h114l-95 -259h-92z" />
<glyph unicode="&#x201e;" horiz-adv-x="420" d="M31 -160l73 259h114l-95 -259h-92zM202 -160l73 259h114l-95 -259h-92z" />
<glyph unicode="&#x2020;" horiz-adv-x="510" d="M56 441v89h141v170h116v-170h141v-89h-141v-441h-116v441h-141z" />
<glyph unicode="&#x2021;" horiz-adv-x="510" d="M56 170v89h141v182h-141v89h141v170h116v-170h141v-89h-141v-182h141v-89h-141v-170h-116v170h-141z" />
<glyph unicode="&#x2022;" horiz-adv-x="359" d="M50 350q0 56 38 93t92 37q53 0 91 -37.5t38 -92.5q0 -56 -38 -93t-91 -37q-54 0 -92 37t-38 93z" />
<glyph unicode="&#x2026;" horiz-adv-x="813" d="M48 57q0 31 20.5 51.5t51.5 20.5t51.5 -20.5t20.5 -51.5t-20.5 -51.5t-51.5 -20.5t-51.5 20.5t-20.5 51.5zM335 57q0 31 20.5 51.5t51.5 20.5t51 -20.5t20 -51.5t-20 -51.5t-51 -20.5t-51.5 20.5t-20.5 51.5zM621 57q0 31 20.5 51.5t51.5 20.5t51.5 -20.5t20.5 -51.5 t-20.5 -51.5t-51.5 -20.5t-51.5 20.5t-20.5 51.5z" />
<glyph unicode="&#x202f;" horiz-adv-x="187" />
<glyph unicode="&#x2030;" horiz-adv-x="1422" d="M50 490q0 99 52 159t136 60t136 -60t52 -159t-52 -159t-136 -60t-136 60t-52 159zM149 490q0 -73 24 -110.5t65 -37.5t64.5 37.5t23.5 110.5t-23.5 110t-64.5 37t-65 -37t-24 -110zM222 0l447 700h110l-447 -700h-110zM580 210q0 99 52 159t136 60t136 -60t52 -159 t-52 -159t-136 -60t-136 60t-52 159zM679 210q0 -73 24 -110.5t65 -37.5t64.5 37.5t23.5 110.5t-23.5 110t-64.5 37t-65 -37t-24 -110zM996 210q0 99 52 159t136 60t136 -60t52 -159t-52 -159t-136 -60t-136 60t-52 159zM1095 210q0 -73 24 -110.5t65 -37.5t64.5 37.5 t23.5 110.5t-23.5 110t-64.5 37t-65 -37t-24 -110z" />
<glyph unicode="&#x2039;" horiz-adv-x="340" d="M50 223v97l240 194v-120l-149 -120l149 -119v-126z" />
<glyph unicode="&#x203a;" horiz-adv-x="340" d="M50 29v120l149 120l-149 119v126l240 -194v-97z" />
<glyph unicode="&#x2044;" horiz-adv-x="495" d="M-31 0l447 700h110l-447 -700h-110z" />
<glyph unicode="&#x205f;" horiz-adv-x="233" />
<glyph unicode="&#x20a1;" horiz-adv-x="671" d="M27 -120l73 240q-53 91 -53 230q0 143 62.5 238t170.5 119l34 113h109l-32 -107q35 -3 66 -14l37 121h110l-54 -176q64 -64 77 -176h-126q-19 158 -151 158q-80 0 -129.5 -71t-49.5 -205q0 -136 47 -206t132 -70q132 0 151 158h126q-14 -123 -87 -185t-190 -62h-1 l-32 -105h-110l37 121q-32 11 -62 30l-46 -151h-109z" />
<glyph unicode="&#x20a5;" horiz-adv-x="928" d="M74 0v519h110v-66q80 82 178 82q108 0 143 -87q38 38 84 61l81 127h109l-65 -102q63 -4 101.5 -45t38.5 -124v-365h-110v342q0 100 -86 104l-139 -218v-228h-110v55l-105 -165h-109l214 336v116q0 54 -23 79t-71 25q-34 0 -70 -17t-61 -42v-387h-110z" />
<glyph unicode="&#x20a6;" horiz-adv-x="738" d="M13 206v89h97v114h-97v88h97v203h117l298 -526l-3 142v384h106v-203h97v-88h-97v-114h97v-89h-97v-206h-117l-298 526l3 -142v-384h-106v206h-97z" />
<glyph unicode="&#x20a8;" horiz-adv-x="593" d="M34 452v88h310q-25 71 -126 71h-184v89h100h411v-89h-132q34 -31 49 -71h83v-88h-74q-9 -92 -72 -139t-155 -53l271 -260h-143l-262 259v85h108q122 0 134 108h-318z" />
<glyph unicode="&#x20a9;" horiz-adv-x="949" d="M13 206v89h133l-30 114h-103v88h80l-53 203h124l125 -564l34 149l102 415h120l103 -415l35 -152l31 152l86 415h109l-50 -203h77v-88h-99l-28 -114h127v-89h-148l-51 -206h-121l-100 401l-36 151l-34 -151l-102 -401h-121l-54 206h-156z" />
<glyph unicode="&#x20aa;" horiz-adv-x="773" d="M93 0v700h210q121 0 178.5 -59.5t57.5 -201.5q0 -100 -25 -238h-94q22 154 22 226q0 97 -34 140.5t-115 43.5h-100v-611h-100zM260 0v499h100v-410h96q82 0 119 62.5t37 195.5q0 134 -41 353h94q42 -194 42 -349q0 -184 -60 -267.5t-181 -83.5h-206z" />
<glyph unicode="&#x20ab;" horiz-adv-x="577" d="M47 0v81h510v-81h-510zM47 349q0 104 58.5 161.5t140.5 57.5q87 0 131 -60v94h-118v78h118v64h108v-64h72v-78h-72v-456h-108v52q-56 -67 -145 -67q-77 0 -131 57t-54 161zM157 349q0 -67 30.5 -102t75.5 -35q66 0 114 50v179q-46 46 -109 46q-46 0 -78.5 -35t-32.5 -103 z" />
<glyph unicode="&#x20ac;" horiz-adv-x="680" d="M23 200v88h71q-3 30 -3 62q0 19 2 53h-70v88h85q27 105 95.5 164.5t167.5 59.5q110 0 180.5 -62t84.5 -185h-126q-19 158 -139 158q-104 0 -140 -135h177v-88h-191q-2 -34 -2 -53q0 -24 2 -62h191v-88h-177q35 -126 140 -126q120 0 139 158h126q-14 -123 -84.5 -185 t-180.5 -62q-104 0 -170 56t-93 159h-85z" />
<glyph unicode="&#x20ad;" horiz-adv-x="613" d="M6 323v89h90v288h116v-288h4l218 288h120l-227 -288h230v-89h-216l248 -323h-142l-235 322v-322h-116v323h-90z" />
<glyph unicode="&#x20ae;" horiz-adv-x="552" d="M30 611v89h492v-89h-188v-123l124 52v-92l-124 -52v-85l124 52v-92l-124 -52v-219h-116v169l-124 -52v93l124 52v84l-124 -52v93l124 52v172h-188z" />
<glyph unicode="&#x20b1;" horiz-adv-x="639" d="M6 427v89h90v184h203q93 0 164 -47t86 -137h77v-89h-77q-15 -89 -85.5 -135.5t-164.5 -46.5h-87v-245h-116v427h-90zM212 332h87q50 0 84.5 24t46.5 71h-218v-95zM212 516h218q-11 48 -46 72.5t-85 24.5h-87v-97z" />
<glyph unicode="&#x20b4;" horiz-adv-x="631" d="M47 303v89h280q56 23 86 51.5t30 75.5q0 109 -123 109t-135 -114h-121q6 96 71.5 148.5t184.5 52.5q112 0 174.5 -49.5t62.5 -132.5q0 -88 -72 -141h99v-89h-302q-50 -22 -77 -50t-27 -72q0 -109 123 -109q131 0 141 113h122q-6 -95 -74.5 -147.5t-188.5 -52.5 q-112 0 -174.5 49t-62.5 133q0 85 66 136h-83z" />
<glyph unicode="&#x20b5;" horiz-adv-x="671" d="M47 350q0 147 66 243.5t180 116.5v110h105v-108q97 -12 157 -73t72 -171h-126q-14 127 -103 152v-540q89 25 103 152h126q-12 -110 -72 -171t-157 -73v-108h-105v109q-120 19 -183 114t-63 247zM171 350q0 -223 122 -267v532q-56 -23 -89 -90t-33 -175z" />
<glyph unicode="&#x2113;" horiz-adv-x="475" d="M26 174v71q48 25 87 49v135q0 138 45.5 212t125.5 74q56 0 92.5 -33t36.5 -110q0 -72 -53.5 -146t-139.5 -139v-137q0 -86 71 -86q27 0 80 15v-71q-51 -23 -116 -23q-64 0 -103 36t-39 108v88q-41 -23 -87 -43zM220 378q94 91 94 193q0 68 -35 68q-59 0 -59 -210v-51z " />
<glyph unicode="&#x2117;" horiz-adv-x="830" d="M50 350q0 152 105 258.5t260 106.5t260 -106.5t105 -258.5t-105 -258.5t-260 -106.5t-260 106.5t-105 258.5zM125 350q0 -124 84 -210.5t206 -86.5t206 86.5t84 210.5t-84 210.5t-206 86.5t-206 -86.5t-84 -210.5zM294 143v413h136q63 0 110 -34.5t47 -100.5 q0 -64 -47 -99t-110 -35h-56v-144h-80zM374 348h56q35 0 55.5 18.5t20.5 54.5q0 37 -20.5 55.5t-55.5 18.5h-56v-147z" />
<glyph unicode="&#x2120;" horiz-adv-x="698" d="M50 491h68q6 -44 56 -44q49 0 49 38q0 14 -11 22t-20.5 10.5t-35.5 7.5q-24 5 -36.5 8.5t-31 13.5t-27 27.5t-8.5 43.5q0 41 32 65.5t81 24.5q53 0 84.5 -23.5t34.5 -68.5h-69q-4 38 -50 38q-48 0 -48 -31q0 -12 9.5 -20t18.5 -10.5t31 -7.5q6 -1 9 -2q23 -4 36.5 -8 t31 -13.5t26 -27.5t8.5 -44q0 -43 -32.5 -70t-81.5 -27q-55 0 -88 24.5t-36 73.5zM337 401v299h69l89 -206l88 206h65v-299h-64v95l2 83l-70 -164h-45l-75 169l2 -89v-94h-61z" />
<glyph unicode="&#x2122;" horiz-adv-x="680" d="M50 647v53h223v-53h-80v-246h-65v246h-78zM318 401v299h70l88 -206l88 206h66v-299h-64v95l1 83l-70 -164h-45l-74 169l1 -89v-94h-61z" />
<glyph unicode="&#x2126;" horiz-adv-x="741" d="M40 0v89h168q-68 45 -114.5 127t-46.5 173q0 140 89 233t235 93q145 0 234 -93t89 -233q0 -91 -46.5 -173t-115.5 -127h169v-89h-259v89q55 40 92 112.5t37 165.5q0 123 -54.5 191t-145.5 68t-145.5 -68t-54.5 -191q0 -94 37 -166t92 -112v-89h-260z" />
<glyph unicode="&#x212e;" horiz-adv-x="774" d="M50 321q0 144 98 241t239 97t239 -97t98 -241h-523v-239q79 -65 186 -65q75 0 138 34t104 93h47q-45 -74 -121.5 -117t-167.5 -43q-141 0 -239 96.5t-98 240.5zM201 354h373l-1 206q-80 66 -186 66t-186 -66v-206z" />
<glyph unicode="&#x2153;" horiz-adv-x="901" d="M50 564v83l103 53h95v-420h-95v337zM131 0l447 700h110l-447 -700h-110zM512 114h97q7 -54 75 -54q71 0 71 60q0 61 -89 61h-52v70h52q78 0 78 57q0 52 -63 52q-58 0 -67 -54h-98q5 58 49.5 90.5t115.5 32.5t114.5 -32t43.5 -87q0 -30 -21 -55.5t-59 -35.5 q48 -8 70 -35.5t22 -63.5q0 -58 -49 -93.5t-118 -35.5q-79 0 -124 32t-48 91z" />
<glyph unicode="&#x2154;" horiz-adv-x="1002" d="M50 572q3 66 46.5 101.5t115.5 35.5q71 0 114 -33.5t43 -96.5q0 -52 -36.5 -94t-147.5 -134h186v-71h-311v71q21 18 52.5 44t48 39.5t38 32.5t32.5 31.5t22 27t15.5 27.5t4.5 26q0 61 -61 61q-58 0 -65 -68h-97zM232 0l447 700h110l-447 -700h-110zM613 114h97 q7 -54 75 -54q71 0 71 60q0 61 -89 61h-52v70h52q78 0 78 57q0 52 -63 52q-58 0 -67 -54h-98q5 58 49.5 90.5t115.5 32.5t114.5 -32t43.5 -87q0 -30 -21 -55.5t-59 -35.5q48 -8 70 -35.5t22 -63.5q0 -58 -49 -93.5t-118 -35.5q-79 0 -124 32t-48 91z" />
<glyph unicode="&#x215b;" horiz-adv-x="907" d="M50 564v83l103 53h95v-420h-95v337zM131 0l447 700h110l-447 -700h-110zM510 113q0 38 23.5 66.5t65.5 38.5q-35 11 -56 35.5t-21 59.5q0 54 45 85t117 31t116.5 -31t44.5 -85q0 -35 -21 -59.5t-56 -35.5q42 -10 65.5 -38.5t23.5 -66.5q0 -61 -48 -91.5t-125 -30.5 q-78 0 -126 30.5t-48 91.5zM606 122q0 -62 78 -62q77 0 77 62q0 58 -77 58q-78 0 -78 -58zM618 303q0 -54 66 -54q65 0 65 54q0 29 -18.5 43t-46.5 14q-66 0 -66 -57z" />
<glyph unicode="&#x215c;" horiz-adv-x="987" d="M50 394h97q7 -54 75 -54q71 0 71 60q0 61 -89 61h-52v70h52q78 0 78 57q0 52 -63 52q-58 0 -67 -54h-98q5 58 49.5 90.5t115.5 32.5t114.5 -32t43.5 -87q0 -30 -21 -55.5t-59 -35.5q48 -8 70 -35.5t22 -63.5q0 -58 -49 -93.5t-118 -35.5q-79 0 -124 32t-48 91zM211 0 l447 700h110l-447 -700h-110zM589 113q0 38 23.5 66.5t65.5 38.5q-35 11 -56 35.5t-21 59.5q0 54 45 85t117 31t116.5 -31t44.5 -85q0 -35 -21 -59.5t-56 -35.5q42 -10 65.5 -38.5t23.5 -66.5q0 -61 -48 -91.5t-125 -30.5q-78 0 -126 30.5t-48 91.5zM685 122q0 -62 78 -62 q77 0 77 62q0 58 -77 58q-78 0 -78 -58zM697 303q0 -54 66 -54q65 0 65 54q0 29 -18.5 43t-46.5 14q-66 0 -66 -57z" />
<glyph unicode="&#x215d;" horiz-adv-x="967" d="M50 385h97q8 -45 62 -45q69 0 69 77q0 79 -67 79q-45 0 -69 -29h-81v233h283v-73h-202v-95q34 33 93 33q60 0 99 -38.5t39 -109.5q0 -67 -48 -106.5t-116 -39.5q-73 0 -114.5 29.5t-44.5 84.5zM191 0l447 700h110l-447 -700h-110zM569 113q0 38 23.5 66.5t65.5 38.5 q-35 11 -56 35.5t-21 59.5q0 54 45 85t117 31t116.5 -31t44.5 -85q0 -35 -21 -59.5t-56 -35.5q42 -10 65.5 -38.5t23.5 -66.5q0 -61 -48 -91.5t-125 -30.5q-78 0 -126 30.5t-48 91.5zM665 122q0 -62 78 -62q77 0 77 62q0 58 -77 58q-78 0 -78 -58zM677 303q0 -54 66 -54 q65 0 65 54q0 29 -18.5 43t-46.5 14q-66 0 -66 -57z" />
<glyph unicode="&#x215e;" horiz-adv-x="861" d="M50 627v73h285v-73l-158 -347h-92l161 347h-196zM85 0l447 700h110l-447 -700h-110zM463 113q0 38 23.5 66.5t65.5 38.5q-35 11 -56 35.5t-21 59.5q0 54 45 85t117 31t116.5 -31t44.5 -85q0 -35 -21 -59.5t-56 -35.5q42 -10 65.5 -38.5t23.5 -66.5q0 -61 -48 -91.5 t-125 -30.5q-78 0 -126 30.5t-48 91.5zM559 122q0 -62 78 -62q77 0 77 62q0 58 -77 58q-78 0 -78 -58zM571 303q0 -54 66 -54q65 0 65 54q0 29 -18.5 43t-46.5 14q-66 0 -66 -57z" />
<glyph unicode="&#x2190;" horiz-adv-x="751" d="M40 266l304 304l63 -63l-197 -197h501v-88h-500l196 -196l-63 -63z" />
<glyph unicode="&#x2191;" horiz-adv-x="687" d="M40 298l303 303l304 -303l-63 -63l-196 196v-500h-89v500l-197 -196z" />
<glyph unicode="&#x2192;" horiz-adv-x="751" d="M40 222v88h501l-197 197l63 63l304 -304l-304 -303l-63 63l196 196h-500z" />
<glyph unicode="&#x2193;" horiz-adv-x="687" d="M40 234l62 63l197 -196v500h89v-500l196 196l63 -63l-304 -303z" />
<glyph unicode="&#x2196;" horiz-adv-x="624" d="M80 90v429h429v-89h-278l353 -354l-62 -62l-353 354v-278h-89z" />
<glyph unicode="&#x2197;" horiz-adv-x="624" d="M40 76l353 354h-278v89h429v-429h-88v278l-354 -354z" />
<glyph unicode="&#x2198;" horiz-adv-x="624" d="M40 457l62 62l354 -354v278h88v-429h-429v89h278z" />
<glyph unicode="&#x2199;" horiz-adv-x="624" d="M80 14v429h89v-278l353 354l62 -62l-353 -354h278v-89h-429z" />
<glyph unicode="&#x2202;" horiz-adv-x="632" d="M47 183q0 124 70.5 197t184.5 73q49 0 94 -23.5t69 -60.5q5 53 5 101q0 102 -34.5 154.5t-87.5 52.5q-83 0 -114 -89h-118q23 81 86.5 126t160.5 45q100 0 161 -82.5t61 -223.5q0 -216 -87 -342t-244 -126q-90 0 -148.5 54t-58.5 144zM164 189q0 -55 28.5 -89t77.5 -34 q63 0 112 60t71 167q-18 32 -56 52t-82 20q-73 0 -112 -49.5t-39 -126.5z" />
<glyph unicode="&#x2205;" horiz-adv-x="662" d="M50 366q0 121 81 201.5t200 80.5q61 0 116 -23l45 71l72 -44l-46 -72q94 -83 94 -214q0 -121 -81 -201.5t-200 -80.5q-60 0 -114 23l-45 -72l-72 45l45 71q-95 84 -95 215zM139 366q0 -84 55 -139l204 321q-33 11 -67 11q-82 0 -137 -53.5t-55 -139.5zM266 183 q33 -10 65 -10q82 0 137 53.5t55 139.5q0 84 -53 137z" />
<glyph unicode="&#x2206;" horiz-adv-x="622" d="M30 0v88l216 612h120l226 -612v-88h-562zM139 88h330l-124 355l-46 149l-44 -149z" />
<glyph unicode="&#x220f;" horiz-adv-x="732" d="M84 0v700h564v-700h-116v611h-332v-611h-116z" />
<glyph unicode="&#x2211;" horiz-adv-x="569" d="M84 0v89l209 265l-209 257v89h432v-89h-301l169 -208v-89l-178 -225h310v-89h-432z" />
<glyph unicode="&#x2212;" horiz-adv-x="566" d="M50 321v89h466v-89h-466z" />
<glyph unicode="&#x221a;" horiz-adv-x="658" d="M34 442v77h192l87 -259l44 -146l43 146l137 440h104l-237 -700h-108l-161 442h-101z" />
<glyph unicode="&#x221e;" horiz-adv-x="826" d="M50 353q0 80 51 134t127 54q92 0 185 -116q44 54 87.5 85t97.5 31q76 0 127 -54t51 -134t-51 -134t-127 -54q-54 0 -97.5 31t-87.5 85q-93 -116 -185 -116q-76 0 -127 54t-51 134zM145 353q0 -42 24.5 -70.5t63.5 -28.5q31 0 59.5 25t65.5 74q-38 50 -66 74.5t-59 24.5 q-39 0 -63.5 -28.5t-24.5 -70.5zM468 353q36 -49 64.5 -74t60.5 -25q39 0 63.5 28.5t24.5 70.5t-24.5 70.5t-63.5 28.5q-32 0 -60 -25t-65 -74z" />
<glyph unicode="&#x222b;" horiz-adv-x="427" d="M60 -136q42 0 69 26.5t27 83.5v531q0 98 58.5 154t152.5 56v-87q-42 0 -69 -26.5t-27 -83.5v-531q0 -98 -58.5 -154t-152.5 -56v87z" />
<glyph unicode="&#x2248;" horiz-adv-x="588" d="M36 223q56 125 158 125q32 0 63 -12.5t51 -28t44 -28t44 -12.5q44 0 82 74l74 -38q-56 -126 -157 -126q-41 0 -78.5 20.5t-68.5 41t-56 20.5q-44 0 -82 -75zM36 429q56 125 158 125q32 0 63 -12.5t51 -28t44 -28t44 -12.5q44 0 82 74l74 -38q-56 -126 -157 -126 q-41 0 -78.5 20.5t-68.5 41t-56 20.5q-44 0 -82 -75z" />
<glyph unicode="&#x2260;" horiz-adv-x="566" d="M50 218v89h164l44 117h-208v89h242l61 162h94l-61 -162h130v-89h-164l-44 -117h208v-89h-242l-62 -163h-94l62 163h-130z" />
<glyph unicode="&#x2264;" horiz-adv-x="566" d="M50 0v89h466v-89h-466zM50 342v92l466 197v-89l-357 -151l357 -151v-95z" />
<glyph unicode="&#x2265;" horiz-adv-x="566" d="M50 0v89h466v-89h-466zM50 145v89l357 152l-357 151v94l466 -197v-92z" />
<glyph unicode="&#x25ca;" horiz-adv-x="586" d="M50 350l188 350h110l188 -350l-188 -350h-110zM156 350l137 -249l137 249l-137 248z" />
<glyph unicode="&#x25fc;" horiz-adv-x="520" d="M0 0v520h520v-520h-520z" />
<glyph unicode="&#x27f5;" horiz-adv-x="1378" d="M40 266l304 304l63 -63l-197 -197h1128v-88h-1127l196 -196l-63 -63z" />
<glyph unicode="&#x27f6;" horiz-adv-x="1378" d="M40 222v88h1127l-196 197l63 63l304 -304l-304 -303l-63 63l196 196h-1127z" />
<glyph unicode="&#x301a;" horiz-adv-x="371" d="M120 -125v950h231v-76h-72v-798h72v-76h-231zM183 -49h33v798h-33v-798z" />
<glyph unicode="&#x301b;" horiz-adv-x="371" d="M20 -49h73v798h-73v76h231v-950h-231v76zM156 -49h32v798h-32v-798z" />
<glyph horiz-adv-x="741" d="M47 350q0 166 88 265.5t236 99.5t235.5 -99.5t87.5 -265.5t-87.5 -265.5t-235.5 -99.5t-236 99.5t-88 265.5zM171 350q0 -135 54 -205.5t146 -70.5t146 70.5t54 205.5t-54 205.5t-146 70.5t-146 -70.5t-54 -205.5zM241 -56h369v-89h-369v89z" />
<glyph horiz-adv-x="589" d="M47 259q0 129 66 202t158 73q83 0 134 -61v46h110v-519h-110v54q-69 -69 -159 -69q-87 0 -143 71.5t-56 202.5zM161 259q0 -95 34 -142.5t88 -47.5q71 0 122 51v283q-47 47 -113 47q-55 0 -93 -48.5t-38 -142.5z" />
<glyph horiz-adv-x="590" d="M27 -72q0 69 73 125q-37 26 -37 82q0 50 47 105q-64 45 -64 125q0 81 64 125t163 44q57 0 104 -15h180v-77h-76q19 -35 19 -77q0 -81 -64 -125t-163 -44q-58 0 -109 17q-8 -21 -8 -42q0 -45 49 -45h158q83 0 131 -39t48 -104q0 -87 -81.5 -146.5t-198.5 -59.5 q-114 0 -174.5 40t-60.5 111zM129 -37q0 -56 38.5 -84.5t109.5 -28.5t112.5 29t41.5 80q0 37 -25 55t-60 18h-164q-18 0 -34 3q-19 -35 -19 -72zM154 365q0 -50 32.5 -74t86.5 -24q118 0 118 98t-118 98q-119 0 -119 -98z" />
<glyph horiz-adv-x="258" d="M-67 -135q40 -10 66 -10q34 0 54.5 19.5t20.5 60.5v584h110v-583q0 -79 -45.5 -119t-127.5 -40q-44 0 -78 17v71zM60 662q0 29 20 49t49 20t49 -20t20 -49t-20 -48.5t-49 -19.5t-49 19.5t-20 48.5z" />
<glyph horiz-adv-x="378" d="M20 442v77h114v141h110v-141h114v-77h-114v-442h-110v442h-114z" />
<glyph horiz-adv-x="516" d="M60 662q0 29 20 49t49 20t49 -20t20 -49t-20 -48.5t-49 -19.5t-49 19.5t-20 48.5zM74 0v519h110v-519h-110zM191 -135q40 -10 66 -10q34 0 54.5 19.5t20.5 60.5v584h110v-583q0 -79 -45.5 -119t-127.5 -40q-44 0 -78 17v71zM318 662q0 29 20 49t49 20t49 -20t20 -49 t-20 -48.5t-49 -19.5t-49 19.5t-20 48.5z" />
<glyph horiz-adv-x="589" d="M47 259q0 129 66 202t158 73q83 0 134 -61v46h110v-519h-110v54q-69 -69 -159 -69q-87 0 -143 71.5t-56 202.5zM161 259q0 -95 34 -142.5t88 -47.5q71 0 122 51v283q-47 47 -113 47q-55 0 -93 -48.5t-38 -142.5zM191 582l102 154h137l-148 -154h-91z" />
<glyph horiz-adv-x="589" d="M47 259q0 129 66 202t158 73q83 0 134 -61v46h110v-519h-110v54q-69 -69 -159 -69q-87 0 -143 71.5t-56 202.5zM154 736h76q0 -35 18 -58t53 -23t52.5 23t17.5 58h76q0 -80 -41.5 -121.5t-104.5 -41.5t-105 41.5t-42 121.5zM161 259q0 -95 34 -142.5t88 -47.5 q71 0 122 51v283q-47 47 -113 47q-55 0 -93 -48.5t-38 -142.5z" />
<glyph horiz-adv-x="589" d="M47 259q0 129 66 202t158 73q83 0 134 -61v46h110v-519h-110v54q-69 -69 -159 -69q-87 0 -143 71.5t-56 202.5zM130 582l114 154h113l115 -154h-91l-80 83l-80 -83h-91zM161 259q0 -95 34 -142.5t88 -47.5q71 0 122 51v283q-47 47 -113 47q-55 0 -93 -48.5t-38 -142.5z " />
<glyph horiz-adv-x="589" d="M47 259q0 129 66 202t158 73q83 0 134 -61v46h110v-519h-110v54q-69 -69 -159 -69q-87 0 -143 71.5t-56 202.5zM138 662q0 28 19.5 47.5t47.5 19.5t48 -19.5t20 -47.5t-20 -47.5t-48 -19.5t-47.5 19.5t-19.5 47.5zM161 259q0 -95 34 -142.5t88 -47.5q71 0 122 51v283 q-47 47 -113 47q-55 0 -93 -48.5t-38 -142.5zM334 662q0 28 19.5 47.5t47.5 19.5t48 -19.5t20 -47.5t-20 -47.5t-48 -19.5t-47.5 19.5t-19.5 47.5z" />
<glyph horiz-adv-x="589" d="M47 259q0 129 66 202t158 73q83 0 134 -61v46h110v-519h-110v54q-69 -69 -159 -69q-87 0 -143 71.5t-56 202.5zM131 736h137l102 -154h-91zM161 259q0 -95 34 -142.5t88 -47.5q71 0 122 51v283q-47 47 -113 47q-55 0 -93 -48.5t-38 -142.5z" />
<glyph horiz-adv-x="589" d="M47 259q0 129 66 202t158 73q83 0 134 -61v46h110v-519h-110v54q-69 -69 -159 -69q-87 0 -143 71.5t-56 202.5zM149 612v78h302v-78h-302zM161 259q0 -95 34 -142.5t88 -47.5q71 0 122 51v283q-47 47 -113 47q-55 0 -93 -48.5t-38 -142.5z" />
<glyph horiz-adv-x="589" d="M47 259q0 129 66 202t158 73q83 0 134 -61v46h110v-519q-119 -62 -119 -133q0 -21 14.5 -34t33.5 -13q31 0 71 21v-65q-42 -24 -100 -24q-50 0 -79.5 28.5t-29.5 71.5q0 86 111 148h-12v54q-69 -69 -159 -69q-87 0 -143 71.5t-56 202.5zM161 259q0 -95 34 -142.5 t88 -47.5q71 0 122 51v283q-47 47 -113 47q-55 0 -93 -48.5t-38 -142.5z" />
<glyph horiz-adv-x="589" d="M47 259q0 129 66 202t158 73q83 0 134 -61v46h110v-519h-110v54q-69 -69 -159 -69q-87 0 -143 71.5t-56 202.5zM161 259q0 -95 34 -142.5t88 -47.5q71 0 122 51v283q-47 47 -113 47q-55 0 -93 -48.5t-38 -142.5zM183 659q0 45 33.5 71t83.5 26q51 0 84.5 -26t33.5 -71 t-33.5 -71.5t-84.5 -26.5q-50 0 -83.5 26.5t-33.5 71.5zM267 648q5 -16 18 -22.5t28 -1.5q32 10 21 45q-12 34 -46 24t-21 -45z" />
<glyph horiz-adv-x="589" d="M47 259q0 129 66 202t158 73q83 0 134 -61v46h110v-519h-110v54q-69 -69 -159 -69q-87 0 -143 71.5t-56 202.5zM124 621q19 47 50 72.5t63 25.5q30 0 74.5 -22.5t57.5 -22.5q29 0 50 42l60 -29q-18 -48 -49 -73t-63 -25q-30 0 -74.5 22t-58.5 22q-30 0 -50 -41zM161 259 q0 -95 34 -142.5t88 -47.5q71 0 122 51v283q-47 47 -113 47q-55 0 -93 -48.5t-38 -142.5z" />
<glyph horiz-adv-x="590" d="M27 -72q0 69 73 125q-37 26 -37 82q0 50 47 105q-64 45 -64 125q0 81 64 125t163 44q57 0 104 -15h180v-77h-76q19 -35 19 -77q0 -81 -64 -125t-163 -44q-58 0 -109 17q-8 -21 -8 -42q0 -45 49 -45h158q83 0 131 -39t48 -104q0 -87 -81.5 -146.5t-198.5 -59.5 q-114 0 -174.5 40t-60.5 111zM129 -37q0 -56 38.5 -84.5t109.5 -28.5t112.5 29t41.5 80q0 37 -25 55t-60 18h-164q-18 0 -34 3q-19 -35 -19 -72zM131 736h76q0 -35 18 -58t53 -23t52.5 23t17.5 58h76q0 -80 -41.5 -121.5t-104.5 -41.5t-105 41.5t-42 121.5zM154 365 q0 -50 32.5 -74t86.5 -24q118 0 118 98t-118 98q-119 0 -119 -98z" />
<glyph horiz-adv-x="590" d="M27 -72q0 69 73 125q-37 26 -37 82q0 50 47 105q-64 45 -64 125q0 81 64 125t163 44q57 0 104 -15h180v-77h-76q19 -35 19 -77q0 -81 -64 -125t-163 -44q-58 0 -109 17q-8 -21 -8 -42q0 -45 49 -45h158q83 0 131 -39t48 -104q0 -87 -81.5 -146.5t-198.5 -59.5 q-114 0 -174.5 40t-60.5 111zM107 582l114 154h113l115 -154h-91l-80 83l-80 -83h-91zM129 -37q0 -56 38.5 -84.5t109.5 -28.5t112.5 29t41.5 80q0 37 -25 55t-60 18h-164q-18 0 -34 3q-19 -35 -19 -72zM154 365q0 -50 32.5 -74t86.5 -24q118 0 118 98t-118 98 q-119 0 -119 -98z" />
<glyph horiz-adv-x="590" d="M27 -72q0 69 73 125q-37 26 -37 82q0 50 47 105q-64 45 -64 125q0 81 64 125t163 44q57 0 104 -15h180v-77h-76q19 -35 19 -77q0 -81 -64 -125t-163 -44q-58 0 -109 17q-8 -21 -8 -42q0 -45 49 -45h158q83 0 131 -39t48 -104q0 -87 -81.5 -146.5t-198.5 -59.5 q-114 0 -174.5 40t-60.5 111zM129 -37q0 -56 38.5 -84.5t109.5 -28.5t112.5 29t41.5 80q0 37 -25 55t-60 18h-164q-18 0 -34 3q-19 -35 -19 -72zM154 365q0 -50 32.5 -74t86.5 -24q118 0 118 98t-118 98q-119 0 -119 -98zM218 583l45 186h77l-20 -186h-102z" />
<glyph horiz-adv-x="590" d="M27 -72q0 69 73 125q-37 26 -37 82q0 50 47 105q-64 45 -64 125q0 81 64 125t163 44q57 0 104 -15h180v-77h-76q19 -35 19 -77q0 -81 -64 -125t-163 -44q-58 0 -109 17q-8 -21 -8 -42q0 -45 49 -45h158q83 0 131 -39t48 -104q0 -87 -81.5 -146.5t-198.5 -59.5 q-114 0 -174.5 40t-60.5 111zM129 -37q0 -56 38.5 -84.5t109.5 -28.5t112.5 29t41.5 80q0 37 -25 55t-60 18h-164q-18 0 -34 3q-19 -35 -19 -72zM154 365q0 -50 32.5 -74t86.5 -24q118 0 118 98t-118 98q-119 0 -119 -98zM208 662q0 29 20 49t49 20t49 -20t20 -49t-20 -48.5 t-49 -19.5t-49 19.5t-20 48.5z" />
<glyph horiz-adv-x="258" d="M60 662q0 29 20 49t49 20t49 -20t20 -49t-20 -48.5t-49 -19.5t-49 19.5t-20 48.5zM74 0v519h110v-519h-110z" />
<glyph horiz-adv-x="258" d="M-67 -135q40 -10 66 -10q34 0 54.5 19.5t20.5 60.5v584h110v-583q0 -79 -45.5 -119t-127.5 -40q-44 0 -78 17v71zM-41 582l114 154h113l115 -154h-91l-80 83l-80 -83h-91z" />
<glyph horiz-adv-x="378" d="M20 442v77h114v141h110v-141h114v-77h-114v-104h94v-78h-94v-260h-110v260h-94v78h94v104h-114z" />
<glyph horiz-adv-x="378" d="M20 442v77h114v141h110v-141h114v-77h-114v-442h-110v442h-114zM294 577v226h99l-22 -226h-77z" />
<glyph horiz-adv-x="378" d="M20 442v77h114v141h110v-141h114v-77h-114v-442h-11l-49 -65q46 3 79 -18.5t33 -65.5q0 -46 -37 -72.5t-89 -26.5q-43 0 -72 14v56q29 -13 64 -13q20 0 36 10t16 29t-15.5 28.5t-36.5 9.5q-20 0 -40 -6l-21 36l63 84h-30v442h-114z" />
<glyph horiz-adv-x="378" d="M20 442v77h114v141h110v-141h114v-77h-114v-442h-110v442h-114zM118 -248l20 186h102l-45 -186h-77z" />
<glyph horiz-adv-x="541" d="M10 0l202 543h103l216 -543h-118l-49 134h-203l-46 -134h-105zM188 214h147l-40 108l-36 109l-34 -109z" />
<glyph horiz-adv-x="561" d="M84 0v543h199q92 0 150.5 -35t58.5 -110q0 -41 -25 -72t-65 -42q50 -9 81 -42t31 -87q0 -76 -59 -115.5t-155 -39.5h-216zM193 76h107q54 0 79 18.5t25 61.5q0 80 -104 80h-107v-160zM193 311h90q98 0 98 80q0 76 -98 76h-90v-156z" />
<glyph horiz-adv-x="576" d="M47 271q0 130 67 208t184 78q94 0 158.5 -49.5t75.5 -144.5h-115q-15 115 -119 115q-65 0 -100.5 -54t-35.5 -153t35.5 -153t100.5 -54q104 0 119 116h115q-11 -95 -75.5 -145t-158.5 -50q-117 0 -184 78t-67 208z" />
<glyph horiz-adv-x="610" d="M84 0v543h180q138 0 218.5 -72t80.5 -200q0 -127 -80.5 -199t-218.5 -72h-180zM193 79h71q86 0 135 46t49 146t-49 146t-135 46h-71v-384z" />
<glyph horiz-adv-x="489" d="M84 0v543h352v-80h-243v-139h227v-79h-227v-166h243v-79h-352z" />
<glyph horiz-adv-x="464" d="M84 0v543h343v-80h-234v-154h218v-79h-218v-230h-109z" />
<glyph horiz-adv-x="590" d="M47 271q0 130 67 208t184 78q93 0 157 -47.5t75 -134.5h-115q-16 103 -117 103q-65 0 -100.5 -54t-35.5 -153q0 -207 133 -207q70 0 127 55v79h-123v77h227v-275h-104v49q-26 -27 -69 -45.5t-84 -18.5q-108 0 -165 77t-57 209z" />
<glyph horiz-adv-x="637" d="M84 0v543h109v-219h251v219h109v-543h-109v245h-251v-245h-109z" />
<glyph horiz-adv-x="277" d="M84 0v543h109v-543h-109z" />
<glyph horiz-adv-x="502" d="M30 181h116q3 -64 24.5 -89.5t61.5 -25.5q42 0 64.5 24t22.5 69v384h109v-368q0 -92 -57 -141t-139 -49q-88 0 -143.5 46.5t-58.5 149.5z" />
<glyph horiz-adv-x="554" d="M84 0v543h109v-253l194 253h112l-199 -249l230 -294h-132l-205 276v-276h-109z" />
<glyph horiz-adv-x="473" d="M92 0v543h109v-464h217v-79h-326z" />
<glyph horiz-adv-x="731" d="M84 0v543h118l167 -401l169 401h109v-543h-102v259l2 99l-134 -327h-92l-140 338l1 -110v-259h-98z" />
<glyph horiz-adv-x="627" d="M84 0v543h107l256 -394l-3 111v283h99v-543h-107l-255 393l1 -110v-283h-98z" />
<glyph horiz-adv-x="628" d="M47 271q0 129 73.5 207.5t193.5 78.5q119 0 193 -78.5t74 -207.5t-74 -207.5t-193 -78.5q-120 0 -193.5 78.5t-73.5 207.5zM162 271q0 -98 41.5 -152.5t110.5 -54.5q68 0 109.5 54.5t41.5 152.5t-41.5 152.5t-109.5 54.5q-69 0 -110.5 -54.5t-41.5 -152.5z" />
<glyph horiz-adv-x="525" d="M84 0v543h194q86 0 146.5 -47t60.5 -133q0 -85 -60.5 -132t-146.5 -47h-85v-184h-109zM193 263h85q97 0 97 100q0 53 -26.5 77.5t-70.5 24.5h-85v-202z" />
<glyph horiz-adv-x="628" d="M47 271q0 129 73.5 207.5t193.5 78.5q119 0 193 -78.5t74 -207.5q0 -90 -37.5 -157.5t-104.5 -100.5l127 -130h-132l-97 103q-7 -1 -23 -1q-120 0 -193.5 78.5t-73.5 207.5zM162 271q0 -98 41.5 -152.5t110.5 -54.5q68 0 109.5 54.5t41.5 152.5t-41.5 152.5t-109.5 54.5 q-69 0 -110.5 -54.5t-41.5 -152.5z" />
<glyph horiz-adv-x="628" d="M47 271q0 129 73.5 207.5t193.5 78.5q119 0 193 -78.5t74 -207.5t-74 -207.5t-193 -78.5q-120 0 -193.5 78.5t-73.5 207.5zM162 271q0 -98 41.5 -152.5t110.5 -54.5q68 0 109.5 54.5t41.5 152.5t-41.5 152.5t-109.5 54.5q-69 0 -110.5 -54.5t-41.5 -152.5zM210 -49h300 v-80h-300v80z" />
<glyph horiz-adv-x="539" d="M84 0v543h189q87 0 147.5 -45t60.5 -128q0 -60 -33 -99t-89 -57l153 -214h-126l-133 201h-60v-201h-109zM193 276h80q97 0 97 94q0 95 -97 95h-80v-189z" />
<glyph horiz-adv-x="540" d="M51 162h111q5 -50 36.5 -75t80.5 -25q44 0 75 21t31 60t-34 58.5t-94 31.5q-37 7 -57.5 11.5t-51.5 17t-48 28.5t-30 43.5t-13 63.5q0 71 58 115.5t146 44.5q102 0 159.5 -43.5t62.5 -125.5h-111q-5 46 -34 69t-77 23q-42 0 -71 -19.5t-29 -54.5q0 -21 9.5 -35.5t30 -24 t38 -14.5t47.5 -11q36 -7 57.5 -12.5t53 -18t49 -29t30.5 -44t13 -63.5q0 -73 -61.5 -121t-148.5 -48q-104 0 -164 45.5t-64 131.5z" />
<glyph horiz-adv-x="461" d="M30 463v80h401v-80h-146v-463h-109v463h-146z" />
<glyph horiz-adv-x="616" d="M81 187v356h109v-341q0 -136 121 -136q63 0 94 34t31 87v356h99v-341q0 -101 -61.5 -159t-162.5 -58q-106 0 -168 53t-62 149z" />
<glyph horiz-adv-x="541" d="M10 543h118l114 -304l40 -118l39 118l105 304h105l-202 -543h-102z" />
<glyph horiz-adv-x="773" d="M10 543h118l78 -287l29 -114l29 114l82 287h97l87 -287l32 -115l27 115l70 287h104l-153 -543h-98l-89 287l-32 116l-29 -116l-83 -287h-103z" />
<glyph horiz-adv-x="508" d="M18 0l177 270l-176 273h120l113 -184l113 184h106l-167 -255l187 -288h-118l-125 200l-123 -200h-107z" />
<glyph horiz-adv-x="536" d="M34 543h118l127 -255l120 255h103l-176 -341v-202h-109v208z" />
<glyph horiz-adv-x="452" d="M40 0v79l257 384h-251v80h366v-80l-257 -384h257v-79h-372z" />
<glyph horiz-adv-x="801" d="M10 0l377 543h361v-80h-243v-139h227v-79h-227v-166h243v-79h-352v134h-179l-89 -134h-118zM270 214h126v197l-59 -96z" />
<glyph horiz-adv-x="610" d="M4 229v81h80v233h180q138 0 218.5 -72t80.5 -200q0 -127 -80.5 -199t-218.5 -72h-180v229h-80zM193 79h71q86 0 135 46t49 146t-49 146t-135 46h-71v-153h103v-81h-103v-150z" />
<glyph horiz-adv-x="779" d="M84 0v543h109v-543h-109zM306 181h116q3 -64 24.5 -89.5t61.5 -25.5q42 0 64.5 24t22.5 69v384h109v-368q0 -92 -57 -141t-139 -49q-88 0 -143.5 46.5t-58.5 149.5z" />
<glyph horiz-adv-x="627" d="M84 0v543h107l256 -394l-3 111v283h99v-543q0 -93 -51 -133t-130 -40q-47 0 -75 14v76q36 -9 69 -9q87 0 87 80l-262 405l1 -110v-283h-98z" />
<glyph horiz-adv-x="628" d="M47 271q0 129 73.5 207.5t193.5 78.5q51 0 93 -15l39 70h114l-67 -120q88 -80 88 -221q0 -129 -74 -207.5t-193 -78.5q-50 0 -94 15l-39 -70h-114l67 121q-87 79 -87 220zM162 271q0 -73 25 -125l179 322q-23 10 -52 10q-69 0 -110.5 -54.5t-41.5 -152.5zM261 74 q23 -10 53 -10q68 0 109.5 54.5t41.5 152.5q0 75 -25 125z" />
<glyph horiz-adv-x="804" d="M47 272q0 127 80.5 199t218.5 72h405v-80h-243v-139h227v-79h-227v-166h243v-79h-405q-138 0 -218.5 72t-80.5 200zM162 272q0 -193 184 -193h53v384h-53q-184 0 -184 -191z" />
<glyph horiz-adv-x="525" d="M84 0v543h109v-84h85q86 0 146.5 -47t60.5 -132q0 -86 -60.5 -133t-146.5 -47h-85v-100h-109zM193 178h85q44 0 70.5 24.5t26.5 77.5q0 101 -97 101h-85v-203z" />
<glyph horiz-adv-x="598" d="M80 0v298q0 121 68 183t179 62h191v-80l-113 -154q56 -13 91 -46t45.5 -63.5t10.5 -61.5q0 -72 -51 -112.5t-118 -40.5q-69 0 -109.5 34.5t-41.5 96.5h94q6 -57 61 -57q28 0 44 20t16 58q0 44 -33.5 73.5t-93.5 29.5h-22v78l106 145h-79q-63 0 -99.5 -34.5t-36.5 -120.5 v-308h-109z" />
<glyph horiz-adv-x="541" d="M10 0l202 543h103l216 -543h-118l-49 134h-203l-46 -134h-105zM175 583l106 109h130l-144 -109h-92zM188 214h147l-40 108l-36 109l-34 -109z" />
<glyph horiz-adv-x="541" d="M10 0l202 543h103l216 -543h-118l-49 134h-203l-46 -134h-105zM127 692h75q0 -43 58 -43q57 0 57 43h76q0 -56 -37.5 -86t-95.5 -30t-95.5 30t-37.5 86zM188 214h147l-40 108l-36 109l-34 -109z" />
<glyph horiz-adv-x="541" d="M10 0l202 543h103l216 -543h-118l-49 134h-203l-46 -134h-105zM94 583l125 109h84l124 -109h-94l-73 41l-71 -41h-95zM188 214h147l-40 108l-36 109l-34 -109z" />
<glyph horiz-adv-x="541" d="M10 0l202 543h103l216 -543h-118l-49 134h-203l-46 -134h-105zM114 642q0 24 17.5 40t41.5 16t41.5 -16t17.5 -40t-17.5 -39.5t-41.5 -15.5t-41.5 15.5t-17.5 39.5zM188 214h147l-40 108l-36 109l-34 -109zM289 642q0 24 17 40t41 16t41.5 -16t17.5 -40t-17.5 -39.5 t-41.5 -15.5t-41 15.5t-17 39.5z" />
<glyph horiz-adv-x="541" d="M10 0l202 543h103l216 -543h-118l-49 134h-203l-46 -134h-105zM115 692h131l105 -109h-91zM188 214h147l-40 108l-36 109l-34 -109z" />
<glyph horiz-adv-x="541" d="M10 0l202 543h103l216 -543h-118l-49 134h-203l-46 -134h-105zM131 600v72h260v-72h-260zM188 214h147l-40 108l-36 109l-34 -109z" />
<glyph horiz-adv-x="541" d="M10 0l202 543h103l216 -543q-119 -62 -119 -133q0 -21 14.5 -34t33.5 -13q31 0 71 21v-65q-42 -24 -100 -24q-50 0 -79.5 28.5t-29.5 71.5q0 86 111 148h-20l-49 134h-203l-46 -134h-105zM188 214h147l-40 108l-36 109l-34 -109z" />
<glyph horiz-adv-x="541" d="M10 0l202 543h103l216 -543h-118l-49 134h-203l-46 -134h-105zM168 638q0 35 26.5 55.5t68.5 20.5t68.5 -20.5t26.5 -55.5t-26.5 -55.5t-68.5 -20.5t-68.5 20.5t-26.5 55.5zM188 214h147l-40 108l-36 109l-34 -109zM230 638q0 -31 33 -31t33 31q0 32 -33 32t-33 -32z" />
<glyph horiz-adv-x="541" d="M10 0l202 543h103l216 -543h-118l-49 134h-203l-46 -134h-105zM105 618q31 77 92 77q24 0 67 -16t56 -16q22 0 37 29l57 -28q-30 -76 -91 -76q-24 0 -67.5 15t-56.5 15q-22 0 -37 -27zM188 214h147l-40 108l-36 109l-34 -109z" />
<glyph horiz-adv-x="576" d="M47 271q0 130 67 208t184 78q94 0 158.5 -49.5t75.5 -144.5h-115q-15 115 -119 115q-65 0 -100.5 -54t-35.5 -153t35.5 -153t100.5 -54q104 0 119 116h115q-11 -95 -75.5 -145t-158.5 -50q-117 0 -184 78t-67 208zM194 583l106 109h130l-144 -109h-92z" />
<glyph horiz-adv-x="576" d="M47 271q0 130 67 208t184 78q94 0 158.5 -49.5t75.5 -144.5h-115q-15 115 -119 115q-65 0 -100.5 -54t-35.5 -153t35.5 -153t100.5 -54q104 0 119 116h115q-11 -95 -75.5 -145t-158.5 -50q-117 0 -184 78t-67 208zM122 692h95l71 -42l73 42h94l-124 -109h-84z" />
<glyph horiz-adv-x="576" d="M47 271q0 130 67 208t184 78q94 0 158.5 -49.5t75.5 -144.5h-115q-15 115 -119 115q-65 0 -100.5 -54t-35.5 -153t35.5 -153t100.5 -54q104 0 119 116h115q-10 -87 -66.5 -137t-140.5 -57l-39 -51q46 3 79 -18.5t33 -65.5q0 -46 -37 -72.5t-89 -26.5q-43 0 -72 14v56 q29 -13 64 -13q20 0 36 10t16 29t-15.5 28.5t-36.5 9.5q-20 0 -40 -6l-21 36l54 72q-98 13 -154 89t-56 194z" />
<glyph horiz-adv-x="576" d="M47 271q0 130 67 208t184 78q94 0 158.5 -49.5t75.5 -144.5h-115q-15 115 -119 115q-65 0 -100.5 -54t-35.5 -153t35.5 -153t100.5 -54q104 0 119 116h115q-11 -95 -75.5 -145t-158.5 -50q-117 0 -184 78t-67 208zM122 583l125 109h84l124 -109h-94l-73 41l-71 -41h-95z " />
<glyph horiz-adv-x="576" d="M47 271q0 130 67 208t184 78q94 0 158.5 -49.5t75.5 -144.5h-115q-15 115 -119 115q-65 0 -100.5 -54t-35.5 -153t35.5 -153t100.5 -54q104 0 119 116h115q-11 -95 -75.5 -145t-158.5 -50q-117 0 -184 78t-67 208zM229 642q0 24 17.5 40t42.5 16t42.5 -16t17.5 -40 t-17.5 -39.5t-42.5 -15.5t-42.5 15.5t-17.5 39.5z" />
<glyph horiz-adv-x="610" d="M84 0v543h180q138 0 218.5 -72t80.5 -200q0 -127 -80.5 -199t-218.5 -72h-180zM107 692h95l71 -42l73 42h94l-124 -109h-84zM193 79h71q86 0 135 46t49 146t-49 146t-135 46h-71v-384z" />
<glyph horiz-adv-x="610" d="M4 229v81h80v233h180q138 0 218.5 -72t80.5 -200q0 -127 -80.5 -199t-218.5 -72h-180v229h-80zM193 79h71q86 0 135 46t49 146t-49 146t-135 46h-71v-153h103v-81h-103v-150z" />
<glyph horiz-adv-x="489" d="M84 0v543h352v-80h-243v-139h227v-79h-227v-166h243v-79h-352zM148 583l106 109h130l-144 -109h-92z" />
<glyph horiz-adv-x="489" d="M84 0v543h352v-80h-243v-139h227v-79h-227v-166h243v-79h-352zM122 692h75q0 -43 58 -43q57 0 57 43h76q0 -56 -37.5 -86t-95.5 -30t-95.5 30t-37.5 86z" />
<glyph horiz-adv-x="489" d="M84 0v543h352v-80h-243v-139h227v-79h-227v-166h243v-79h-352zM88 692h95l71 -42l73 42h94l-124 -109h-84z" />
<glyph horiz-adv-x="489" d="M84 0v543h352v-80h-243v-139h227v-79h-227v-166h243v-79h-352zM88 583l125 109h84l124 -109h-94l-73 41l-71 -41h-95z" />
<glyph horiz-adv-x="489" d="M84 0v543h352v-80h-243v-139h227v-79h-227v-166h243v-79h-352zM109 642q0 24 17.5 40t41.5 16t41.5 -16t17.5 -40t-17.5 -39.5t-41.5 -15.5t-41.5 15.5t-17.5 39.5zM284 642q0 24 17 40t41 16t41.5 -16t17.5 -40t-17.5 -39.5t-41.5 -15.5t-41 15.5t-17 39.5z" />
<glyph horiz-adv-x="489" d="M84 0v543h352v-80h-243v-139h227v-79h-227v-166h243v-79h-352zM194 642q0 24 17.5 40t42.5 16t42.5 -16t17.5 -40t-17.5 -39.5t-42.5 -15.5t-42.5 15.5t-17.5 39.5z" />
<glyph horiz-adv-x="489" d="M84 0v543h352v-80h-243v-139h227v-79h-227v-166h243v-79h-352zM112 692h131l105 -109h-91z" />
<glyph horiz-adv-x="489" d="M84 0v543h352v-80h-243v-139h227v-79h-227v-166h243v-79h-352zM124 600v72h260v-72h-260z" />
<glyph horiz-adv-x="489" d="M84 0v543h352v-80h-243v-139h227v-79h-227v-166h243v-79h-1q-119 -62 -119 -133q0 -21 14.5 -34t33.5 -13q31 0 71 21v-65q-42 -24 -100 -24q-50 0 -79.5 28.5t-29.5 71.5q0 86 111 148h-253z" />
<glyph horiz-adv-x="590" d="M47 271q0 130 67 208t184 78q93 0 157 -47.5t75 -134.5h-115q-16 103 -117 103q-65 0 -100.5 -54t-35.5 -153q0 -207 133 -207q70 0 127 55v79h-123v77h227v-275h-104v49q-26 -27 -69 -45.5t-84 -18.5q-108 0 -165 77t-57 209zM158 692h75q0 -43 58 -43q57 0 57 43h76 q0 -56 -37.5 -86t-95.5 -30t-95.5 30t-37.5 86z" />
<glyph horiz-adv-x="590" d="M47 271q0 130 67 208t184 78q93 0 157 -47.5t75 -134.5h-115q-16 103 -117 103q-65 0 -100.5 -54t-35.5 -153q0 -207 133 -207q70 0 127 55v79h-123v77h227v-275h-104v49q-26 -27 -69 -45.5t-84 -18.5q-108 0 -165 77t-57 209zM124 583l125 109h84l124 -109h-94l-73 41 l-71 -41h-95z" />
<glyph horiz-adv-x="590" d="M47 271q0 130 67 208t184 78q93 0 157 -47.5t75 -134.5h-115q-16 103 -117 103q-65 0 -100.5 -54t-35.5 -153q0 -207 133 -207q70 0 127 55v79h-123v77h227v-275h-104v49q-26 -27 -69 -45.5t-84 -18.5q-108 0 -165 77t-57 209zM230 -248l20 186h102l-45 -186h-77z" />
<glyph horiz-adv-x="590" d="M47 271q0 130 67 208t184 78q93 0 157 -47.5t75 -134.5h-115q-16 103 -117 103q-65 0 -100.5 -54t-35.5 -153q0 -207 133 -207q70 0 127 55v79h-123v77h227v-275h-104v49q-26 -27 -69 -45.5t-84 -18.5q-108 0 -165 77t-57 209zM231 642q0 24 17.5 40t42.5 16t42.5 -16 t17.5 -40t-17.5 -39.5t-42.5 -15.5t-42.5 15.5t-17.5 39.5z" />
<glyph horiz-adv-x="637" d="M30 386v79h54v78h109v-78h251v78h109v-78h54v-79h-54v-386h-109v233h-251v-233h-109v386h-54zM193 312h251v74h-251v-74z" />
<glyph horiz-adv-x="637" d="M84 0v543h109v-219h251v219h109v-543h-109v245h-251v-245h-109zM151 583l125 109h84l124 -109h-94l-73 41l-71 -41h-95z" />
<glyph horiz-adv-x="277" d="M56 583l106 109h130l-144 -109h-92zM84 0v543h109v-543h-109z" />
<glyph horiz-adv-x="277" d="M6 692h75q0 -43 58 -43q57 0 57 43h76q0 -56 -37.5 -86t-95.5 -30t-95.5 30t-37.5 86zM84 0v543h109v-543h-109z" />
<glyph horiz-adv-x="277" d="M-27 583l125 109h84l124 -109h-94l-73 41l-71 -41h-95zM84 0v543h109v-543h-109z" />
<glyph horiz-adv-x="277" d="M1 642q0 24 17.5 40t41.5 16t41.5 -16t17.5 -40t-17.5 -39.5t-41.5 -15.5t-41.5 16t-17.5 39zM84 0v543h109v-543h-109zM159 642q0 24 17 40t41 16t41.5 -16t17.5 -40t-17.5 -39.5t-41.5 -15.5t-41 15.5t-17 39.5z" />
<glyph horiz-adv-x="277" d="M-18 692h131l105 -109h-91zM84 0v543h109v-543h-109z" />
<glyph horiz-adv-x="277" d="M10 600v72h260v-72h-260zM84 0v543h109v-543h-109z" />
<glyph horiz-adv-x="277" d="M-15 -148q0 86 111 148h-12v543h109v-543h1q-119 -62 -119 -133q0 -21 14.5 -34t33.5 -13q31 0 71 21v-65q-42 -24 -100 -24q-50 0 -79.5 28.5t-29.5 71.5z" />
<glyph horiz-adv-x="277" d="M-15 618q31 77 92 77q24 0 67 -16t56 -16q22 0 37 29l57 -28q-30 -76 -91 -76q-24 0 -67.5 15t-56.5 15q-22 0 -37 -27zM84 0v543h109v-543h-109z" />
<glyph horiz-adv-x="502" d="M30 181h116q3 -64 24.5 -89.5t61.5 -25.5q42 0 64.5 24t22.5 69v384h109v-368q0 -92 -57 -141t-139 -49q-88 0 -143.5 46.5t-58.5 149.5zM206 583l125 109h84l124 -109h-94l-73 41l-71 -41h-95z" />
<glyph horiz-adv-x="554" d="M84 0v543h109v-253l194 253h112l-199 -249l230 -294h-132l-205 276v-276h-109zM199 -248l20 186h102l-45 -186h-77z" />
<glyph horiz-adv-x="473" d="M75 583l106 109h130l-144 -109h-92zM92 0v543h109v-464h217v-79h-326z" />
<glyph horiz-adv-x="473" d="M92 0v543h109v-464h217v-79h-326zM258 376v226h99l-22 -226h-77z" />
<glyph horiz-adv-x="473" d="M92 0v543h109v-464h217v-79h-326zM181 -248l20 186h102l-45 -186h-77z" />
<glyph horiz-adv-x="473" d="M92 0v543h109v-464h217v-79h-326zM259 272q0 24 17.5 40t42.5 16t42.5 -16t17.5 -40t-17.5 -39.5t-42.5 -15.5t-42.5 15.5t-17.5 39.5z" />
<glyph horiz-adv-x="473" d="M30 158v90l62 36v259h109v-196l104 60v-90l-104 -60v-178h217v-79h-326v194z" />
<glyph horiz-adv-x="627" d="M84 0v543h107l256 -394l-3 111v283h99v-543h-107l-255 393l1 -110v-283h-98zM222 583l106 109h130l-144 -109h-92z" />
<glyph horiz-adv-x="627" d="M84 0v543h107l256 -394l-3 111v283h99v-543h-107l-255 393l1 -110v-283h-98zM144 692h95l71 -42l73 42h94l-124 -109h-84z" />
<glyph horiz-adv-x="627" d="M84 0v543h107l256 -394l-3 111v283h99v-543h-107l-255 393l1 -110v-283h-98zM255 -248l20 186h102l-45 -186h-77z" />
<glyph horiz-adv-x="627" d="M84 0v543h107l256 -394l-3 111v283h99v-543h-107l-255 393l1 -110v-283h-98zM155 618q31 77 92 77q24 0 67 -16t56 -16q22 0 37 29l57 -28q-30 -76 -91 -76q-24 0 -67.5 15t-56.5 15q-22 0 -37 -27z" />
<glyph horiz-adv-x="628" d="M47 271q0 129 73.5 207.5t193.5 78.5q119 0 193 -78.5t74 -207.5t-74 -207.5t-193 -78.5q-120 0 -193.5 78.5t-73.5 207.5zM162 271q0 -98 41.5 -152.5t110.5 -54.5q68 0 109.5 54.5t41.5 152.5t-41.5 152.5t-109.5 54.5q-69 0 -110.5 -54.5t-41.5 -152.5zM223 583 l106 109h130l-144 -109h-92z" />
<glyph horiz-adv-x="628" d="M47 271q0 129 73.5 207.5t193.5 78.5q119 0 193 -78.5t74 -207.5t-74 -207.5t-193 -78.5q-120 0 -193.5 78.5t-73.5 207.5zM162 271q0 -98 41.5 -152.5t110.5 -54.5q68 0 109.5 54.5t41.5 152.5t-41.5 152.5t-109.5 54.5q-69 0 -110.5 -54.5t-41.5 -152.5zM181 692h75 q0 -43 58 -43q57 0 57 43h76q0 -56 -37.5 -86t-95.5 -30t-95.5 30t-37.5 86z" />
<glyph horiz-adv-x="628" d="M47 271q0 129 73.5 207.5t193.5 78.5q119 0 193 -78.5t74 -207.5t-74 -207.5t-193 -78.5q-120 0 -193.5 78.5t-73.5 207.5zM147 583l125 109h84l124 -109h-94l-73 41l-71 -41h-95zM162 271q0 -98 41.5 -152.5t110.5 -54.5q68 0 109.5 54.5t41.5 152.5t-41.5 152.5 t-109.5 54.5q-69 0 -110.5 -54.5t-41.5 -152.5z" />
<glyph horiz-adv-x="628" d="M47 271q0 129 73.5 207.5t193.5 78.5q119 0 193 -78.5t74 -207.5t-74 -207.5t-193 -78.5q-120 0 -193.5 78.5t-73.5 207.5zM162 271q0 -98 41.5 -152.5t110.5 -54.5q68 0 109.5 54.5t41.5 152.5t-41.5 152.5t-109.5 54.5q-69 0 -110.5 -54.5t-41.5 -152.5zM168 642 q0 24 17.5 40t41.5 16t41.5 -16t17.5 -40t-17.5 -39.5t-41.5 -15.5t-41.5 15.5t-17.5 39.5zM343 642q0 24 17 40t41 16t41.5 -16t17.5 -40t-17.5 -39.5t-41.5 -15.5t-41 15.5t-17 39.5z" />
<glyph horiz-adv-x="628" d="M47 271q0 129 73.5 207.5t193.5 78.5q119 0 193 -78.5t74 -207.5t-74 -207.5t-193 -78.5q-120 0 -193.5 78.5t-73.5 207.5zM162 271q0 -98 41.5 -152.5t110.5 -54.5q68 0 109.5 54.5t41.5 152.5t-41.5 152.5t-109.5 54.5q-69 0 -110.5 -54.5t-41.5 -152.5zM169 692h131 l105 -109h-91z" />
<glyph horiz-adv-x="628" d="M47 271q0 129 73.5 207.5t193.5 78.5q119 0 193 -78.5t74 -207.5t-74 -207.5t-193 -78.5q-120 0 -193.5 78.5t-73.5 207.5zM155 583l88 109h122l-124 -109h-86zM162 271q0 -98 41.5 -152.5t110.5 -54.5q68 0 109.5 54.5t41.5 152.5t-41.5 152.5t-109.5 54.5 q-69 0 -110.5 -54.5t-41.5 -152.5zM322 583l87 109h123l-123 -109h-87z" />
<glyph horiz-adv-x="628" d="M47 271q0 129 73.5 207.5t193.5 78.5q119 0 193 -78.5t74 -207.5t-74 -207.5t-193 -78.5q-120 0 -193.5 78.5t-73.5 207.5zM162 271q0 -98 41.5 -152.5t110.5 -54.5q68 0 109.5 54.5t41.5 152.5t-41.5 152.5t-109.5 54.5q-69 0 -110.5 -54.5t-41.5 -152.5zM183 600v72 h260v-72h-260z" />
<glyph horiz-adv-x="628" d="M47 271q0 129 73.5 207.5t193.5 78.5q119 0 193 -78.5t74 -207.5t-74 -207.5t-193 -78.5q-120 0 -193.5 78.5t-73.5 207.5zM159 618q31 77 92 77q24 0 67 -16t56 -16q22 0 37 29l57 -28q-30 -76 -91 -76q-24 0 -67.5 15t-56.5 15q-22 0 -37 -27zM162 271 q0 -98 41.5 -152.5t110.5 -54.5q68 0 109.5 54.5t41.5 152.5t-41.5 152.5t-109.5 54.5q-69 0 -110.5 -54.5t-41.5 -152.5z" />
<glyph horiz-adv-x="539" d="M84 0v543h189q87 0 147.5 -45t60.5 -128q0 -60 -33 -99t-89 -57l153 -214h-126l-133 201h-60v-201h-109zM153 583l106 109h130l-144 -109h-92zM193 276h80q97 0 97 94q0 95 -97 95h-80v-189z" />
<glyph horiz-adv-x="539" d="M84 0v543h189q87 0 147.5 -45t60.5 -128q0 -60 -33 -99t-89 -57l153 -214h-126l-133 201h-60v-201h-109zM88 692h95l71 -42l73 42h94l-124 -109h-84zM193 276h80q97 0 97 94q0 95 -97 95h-80v-189z" />
<glyph horiz-adv-x="539" d="M84 0v543h189q87 0 147.5 -45t60.5 -128q0 -60 -33 -99t-89 -57l153 -214h-126l-133 201h-60v-201h-109zM193 276h80q97 0 97 94q0 95 -97 95h-80v-189zM200 -248l20 186h102l-45 -186h-77z" />
<glyph horiz-adv-x="540" d="M51 162h111q5 -50 36.5 -75t80.5 -25q44 0 75 21t31 60t-34 58.5t-94 31.5q-37 7 -57.5 11.5t-51.5 17t-48 28.5t-30 43.5t-13 63.5q0 71 58 115.5t146 44.5q102 0 159.5 -43.5t62.5 -125.5h-111q-5 46 -34 69t-77 23q-42 0 -71 -19.5t-29 -54.5q0 -21 9.5 -35.5t30 -24 t38 -14.5t47.5 -11q36 -7 57.5 -12.5t53 -18t49 -29t30.5 -44t13 -63.5q0 -73 -61.5 -121t-148.5 -48q-104 0 -164 45.5t-64 131.5zM169 583l106 109h130l-144 -109h-92z" />
<glyph horiz-adv-x="540" d="M51 162h111q5 -50 36.5 -75t80.5 -25q44 0 75 21t31 60t-34 58.5t-94 31.5q-37 7 -57.5 11.5t-51.5 17t-48 28.5t-30 43.5t-13 63.5q0 71 58 115.5t146 44.5q102 0 159.5 -43.5t62.5 -125.5h-111q-5 46 -34 69t-77 23q-42 0 -71 -19.5t-29 -54.5q0 -21 9.5 -35.5t30 -24 t38 -14.5t47.5 -11q36 -7 57.5 -12.5t53 -18t49 -29t30.5 -44t13 -63.5q0 -73 -61.5 -121t-148.5 -48q-104 0 -164 45.5t-64 131.5zM97 692h95l71 -42l73 42h94l-124 -109h-84z" />
<glyph horiz-adv-x="540" d="M51 162h111q5 -50 36.5 -75t80.5 -25q44 0 75 21t31 60t-34 58.5t-94 31.5q-37 7 -57.5 11.5t-51.5 17t-48 28.5t-30 43.5t-13 63.5q0 71 58 115.5t146 44.5q102 0 159.5 -43.5t62.5 -125.5h-111q-5 46 -34 69t-77 23q-42 0 -71 -19.5t-29 -54.5q0 -21 9.5 -35.5t30 -24 t38 -14.5t47.5 -11q36 -7 57.5 -12.5t53 -18t49 -29t30.5 -44t13 -63.5q0 -73 -61.5 -121t-148.5 -48q-104 0 -164 45.5t-64 131.5zM199 -248l20 186h102l-45 -186h-77z" />
<glyph horiz-adv-x="540" d="M51 162h111q5 -50 36.5 -75t80.5 -25q44 0 75 21t31 60t-34 58.5t-94 31.5q-37 7 -57.5 11.5t-51.5 17t-48 28.5t-30 43.5t-13 63.5q0 71 58 115.5t146 44.5q102 0 159.5 -43.5t62.5 -125.5h-111q-5 46 -34 69t-77 23q-42 0 -71 -19.5t-29 -54.5q0 -21 9.5 -35.5t30 -24 t38 -14.5t47.5 -11q36 -7 57.5 -12.5t53 -18t49 -29t30.5 -44t13 -63.5q0 -73 -61.5 -121t-148.5 -48q-104 0 -164 45.5t-64 131.5zM96 583l125 109h84l124 -109h-94l-73 41l-71 -41h-95z" />
<glyph horiz-adv-x="540" d="M51 162h111q5 -50 36.5 -75t80.5 -25q44 0 75 21t31 60t-34 58.5t-94 31.5q-37 7 -57.5 11.5t-51.5 17t-48 28.5t-30 43.5t-13 63.5q0 71 58 115.5t146 44.5q102 0 159.5 -43.5t62.5 -125.5h-111q-5 46 -34 69t-77 23q-42 0 -71 -19.5t-29 -54.5q0 -21 9.5 -35.5t30 -24 t38 -14.5t47.5 -11q36 -7 57.5 -12.5t53 -18t49 -29t30.5 -44t13 -63.5q0 -69 -55 -116t-136 -52l-38 -51q46 3 79 -18.5t33 -65.5q0 -46 -37 -72.5t-89 -26.5q-43 0 -72 14v56q29 -13 64 -13q20 0 36 10t16 29t-15.5 28.5t-36.5 9.5q-20 0 -40 -6l-21 36l54 72 q-83 10 -130 54t-50 120z" />
<glyph horiz-adv-x="461" d="M30 463v80h401v-80h-146v-153h98v-81h-98v-229h-109v229h-98v81h98v153h-146z" />
<glyph horiz-adv-x="461" d="M30 463v80h401v-80h-146v-463h-109v463h-146zM64 692h95l71 -42l73 42h94l-124 -109h-84z" />
<glyph horiz-adv-x="461" d="M30 463v80h401v-80h-146v-463h-13l-49 -65q46 3 79 -18.5t33 -65.5q0 -46 -37 -72.5t-89 -26.5q-43 0 -72 14v56q29 -13 64 -13q20 0 36 10t16 29t-15.5 28.5t-36.5 9.5t-40 -6l-21 36l63 84h-27v463h-146z" />
<glyph horiz-adv-x="461" d="M30 463v80h401v-80h-146v-463h-109v463h-146zM160 -248l20 186h102l-45 -186h-77z" />
<glyph horiz-adv-x="616" d="M81 187v356h109v-341q0 -136 121 -136q63 0 94 34t31 87v356h99v-341q0 -101 -61.5 -159t-162.5 -58q-106 0 -168 53t-62 149zM212 583l106 109h130l-144 -109h-92z" />
<glyph horiz-adv-x="616" d="M81 187v356h109v-341q0 -136 121 -136q63 0 94 34t31 87v356h99v-341q0 -101 -61.5 -159t-162.5 -58q-106 0 -168 53t-62 149zM175 692h75q0 -43 58 -43q57 0 57 43h76q0 -56 -37.5 -86t-95.5 -30t-95.5 30t-37.5 86z" />
<glyph horiz-adv-x="616" d="M81 187v356h109v-341q0 -136 121 -136q63 0 94 34t31 87v356h99v-341q0 -101 -61.5 -159t-162.5 -58q-106 0 -168 53t-62 149zM141 583l125 109h84l124 -109h-94l-73 41l-71 -41h-95z" />
<glyph horiz-adv-x="616" d="M81 187v356h109v-341q0 -136 121 -136q63 0 94 34t31 87v356h99v-341q0 -101 -61.5 -159t-162.5 -58q-106 0 -168 53t-62 149zM161 642q0 24 17.5 40t41.5 16t41.5 -16t17.5 -40t-17.5 -39.5t-41.5 -15.5t-41.5 15.5t-17.5 39.5zM336 642q0 24 17 40t41 16t41.5 -16 t17.5 -40t-17.5 -39.5t-41.5 -15.5t-41 15.5t-17 39.5z" />
<glyph horiz-adv-x="616" d="M81 187v356h109v-341q0 -136 121 -136q63 0 94 34t31 87v356h99v-341q0 -101 -61.5 -159t-162.5 -58q-106 0 -168 53t-62 149zM166 692h131l105 -109h-91z" />
<glyph horiz-adv-x="616" d="M81 187v356h109v-341q0 -136 121 -136q63 0 94 34t31 87v356h99v-341q0 -101 -61.5 -159t-162.5 -58q-106 0 -168 53t-62 149zM149 583l88 109h122l-124 -109h-86zM316 583l87 109h123l-123 -109h-87z" />
<glyph horiz-adv-x="616" d="M81 187v356h109v-341q0 -136 121 -136q63 0 94 34t31 87v356h99v-341q0 -101 -61.5 -159t-162.5 -58q-106 0 -168 53t-62 149zM177 600v72h260v-72h-260z" />
<glyph horiz-adv-x="616" d="M81 187v356h109v-341q0 -136 121 -136q63 0 94 34t31 87v356h99v-341q0 -80 -39.5 -134t-109.5 -73q-109 -61 -109 -128q0 -21 14.5 -34t33.5 -13q31 0 71 21v-65q-42 -24 -100 -24q-50 0 -79.5 28.5t-29.5 71.5q0 76 89 135q-91 8 -143 60t-52 140z" />
<glyph horiz-adv-x="616" d="M81 187v356h109v-341q0 -136 121 -136q63 0 94 34t31 87v356h99v-341q0 -101 -61.5 -159t-162.5 -58q-106 0 -168 53t-62 149zM212 638q0 35 26.5 55.5t68.5 20.5t68.5 -20.5t26.5 -55.5t-26.5 -55.5t-68.5 -20.5t-68.5 20.5t-26.5 55.5zM274 638q0 -31 33 -31t33 31 q0 32 -33 32t-33 -32z" />
<glyph horiz-adv-x="616" d="M81 187v356h109v-341q0 -136 121 -136q63 0 94 34t31 87v356h99v-341q0 -101 -61.5 -159t-162.5 -58q-106 0 -168 53t-62 149zM152 618q31 77 92 77q24 0 67 -16t56 -16q22 0 37 29l57 -28q-30 -76 -91 -76q-24 0 -67.5 15t-56.5 15q-22 0 -37 -27z" />
<glyph horiz-adv-x="773" d="M10 543h118l78 -287l29 -114l29 114l82 287h97l87 -287l32 -115l27 115l70 287h104l-153 -543h-98l-89 287l-32 116l-29 -116l-83 -287h-103zM305 583l106 109h130l-144 -109h-92z" />
<glyph horiz-adv-x="773" d="M10 543h118l78 -287l29 -114l29 114l82 287h97l87 -287l32 -115l27 115l70 287h104l-153 -543h-98l-89 287l-32 116l-29 -116l-83 -287h-103zM227 583l125 109h84l124 -109h-94l-73 41l-71 -41h-95z" />
<glyph horiz-adv-x="773" d="M10 543h118l78 -287l29 -114l29 114l82 287h97l87 -287l32 -115l27 115l70 287h104l-153 -543h-98l-89 287l-32 116l-29 -116l-83 -287h-103zM247 642q0 24 17.5 40t41.5 16t41.5 -16t17.5 -40t-17.5 -39.5t-41.5 -15.5t-41.5 15.5t-17.5 39.5zM422 642q0 24 17 40t41 16 t41.5 -16t17.5 -40t-17.5 -39.5t-41.5 -15.5t-41 15.5t-17 39.5z" />
<glyph horiz-adv-x="773" d="M10 543h118l78 -287l29 -114l29 114l82 287h97l87 -287l32 -115l27 115l70 287h104l-153 -543h-98l-89 287l-32 116l-29 -116l-83 -287h-103zM238 692h131l105 -109h-91z" />
<glyph horiz-adv-x="536" d="M34 543h118l127 -255l120 255h103l-176 -341v-202h-109v208zM183 583l106 109h130l-144 -109h-92z" />
<glyph horiz-adv-x="536" d="M34 543h118l127 -255l120 255h103l-176 -341v-202h-109v208zM106 583l125 109h84l124 -109h-94l-73 41l-71 -41h-95z" />
<glyph horiz-adv-x="536" d="M34 543h118l127 -255l120 255h103l-176 -341v-202h-109v208zM127 642q0 24 17.5 40t41.5 16t41.5 -16t17.5 -40t-17.5 -39.5t-41.5 -15.5t-41.5 15.5t-17.5 39.5zM302 642q0 24 17 40t41 16t41.5 -16t17.5 -40t-17.5 -39.5t-41.5 -15.5t-41 15.5t-17 39.5z" />
<glyph horiz-adv-x="536" d="M34 543h118l127 -255l120 255h103l-176 -341v-202h-109v208zM117 692h131l105 -109h-91z" />
<glyph horiz-adv-x="452" d="M40 0v79l257 384h-251v80h366v-80l-257 -384h257v-79h-372zM131 583l106 109h130l-144 -109h-92z" />
<glyph horiz-adv-x="452" d="M40 0v79l257 384h-251v80h366v-80l-257 -384h257v-79h-372zM63 692h95l71 -42l73 42h94l-124 -109h-84z" />
<glyph horiz-adv-x="452" d="M40 0v79l257 384h-251v80h366v-80l-257 -384h257v-79h-372zM166 642q0 24 17.5 40t42.5 16t42.5 -16t17.5 -40t-17.5 -39.5t-42.5 -15.5t-42.5 15.5t-17.5 39.5z" />
<glyph horiz-adv-x="801" d="M10 0l377 543h361v-80h-243v-139h227v-79h-227v-166h243v-79h-352v134h-179l-89 -134h-118zM270 214h126v197l-59 -96zM398 583l106 109h130l-144 -109h-92z" />
<glyph horiz-adv-x="620" d="M20 442v77h87v81q0 79 43.5 119t123.5 40q51 0 84 -17v-71q-41 9 -62 9q-79 0 -79 -79v-82h329v-583q0 -79 -45.5 -119t-127.5 -40q-44 0 -78 17v71q40 -10 66 -10q34 0 54.5 19.5t20.5 60.5v507h-219v-442h-110v442h-87zM422 662q0 29 20 49t49 20t49 -20t20 -49 t-20 -48.5t-49 -19.5t-49 19.5t-20 48.5z" />
<glyph horiz-adv-x="680" d="M20 442v77h87v81q0 79 43.5 119t123.5 40q54 0 87 -17v-71q-41 9 -65 9q-79 0 -79 -79v-82h219v141h110v-141h114v-77h-114v-442h-110v442h-219v-442h-110v442h-87z" />
<glyph horiz-adv-x="949" d="M20 442v77h87v81q0 79 43.5 119t123.5 40q54 0 87 -17v-71q-41 9 -65 9q-79 0 -79 -79v-82h219v81q0 79 43.5 119t123.5 40q51 0 84 -17v-71q-41 9 -62 9q-79 0 -79 -79v-82h329v-583q0 -79 -45.5 -119t-127.5 -40q-44 0 -78 17v71q40 -10 66 -10q34 0 54.5 19.5 t20.5 60.5v507h-219v-442h-110v442h-219v-442h-110v442h-87zM751 662q0 29 20 49t49 20t49 -20t20 -49t-20 -48.5t-49 -19.5t-49 19.5t-20 48.5z" />
<glyph horiz-adv-x="1009" d="M20 442v77h87v81q0 79 43.5 119t123.5 40q54 0 87 -17v-71q-41 9 -65 9q-79 0 -79 -79v-82h219v81q0 79 43.5 119t123.5 40q54 0 87 -17v-71q-41 9 -65 9q-79 0 -79 -79v-82h219v141h110v-141h114v-77h-114v-442h-110v442h-219v-442h-110v442h-219v-442h-110v442h-87z " />
<glyph horiz-adv-x="721" d="M20 442v77h114v141h110v-141h233v141h110v-141h114v-77h-114v-442h-110v442h-233v-442h-110v442h-114z" />
<glyph horiz-adv-x="339" d="M24 515q0 96 153 96q21 0 46 -3v28q0 26 -14.5 38.5t-36.5 12.5q-55 0 -57 -50h-83q1 52 39.5 80t100.5 28q53 0 93 -23.5t40 -78.5v-203h-82v30q-45 -39 -101 -39q-48 0 -73 23.5t-25 60.5zM106 523q0 -35 46 -35q38 0 71 28v46q-32 2 -42 2q-75 0 -75 -41z" />
<glyph horiz-adv-x="343" d="M34 440v424h81v-159q42 40 88 40q53 0 88 -41t35 -116q0 -74 -39 -115.5t-95 -41.5q-45 0 -77 35v-26h-81zM115 522q26 -28 63 -28q64 0 64 94t-63 94q-34 0 -64 -30v-130z" />
<glyph horiz-adv-x="322" d="M17 588q0 71 41 114t109 43q59 0 96.5 -29t41.5 -78h-83q-12 49 -55 49q-29 0 -47.5 -23.5t-18.5 -75.5q0 -99 66 -99q44 0 54 47h83q-5 -48 -41.5 -76.5t-95.5 -28.5q-71 0 -110.5 42.5t-39.5 114.5z" />
<glyph horiz-adv-x="343" d="M17 588q0 75 38.5 116t95.5 41q46 0 76 -35v154h82v-424h-82v30q-42 -39 -87 -39q-53 0 -88 41.5t-35 115.5zM100 588q0 -94 64 -94q35 0 63 30v130q-26 28 -62 28q-65 0 -65 -94z" />
<glyph horiz-adv-x="324" d="M17 588q0 70 41.5 113.5t105.5 43.5q70 0 108.5 -43t33.5 -128h-205q4 -85 66 -85q24 0 34 8.5t16 26.5h84q-5 -41 -42 -67t-92 -26q-71 0 -110.5 42.5t-39.5 114.5zM103 625h119q-2 63 -58 63q-51 0 -61 -63z" />
<glyph horiz-adv-x="231" d="M8 677v59h53v34q0 103 107 103q35 0 55 -10v-56q-23 5 -39 5q-42 0 -42 -42v-34h81v-59h-81v-237h-81v237h-53z" />
<glyph horiz-adv-x="343" d="M17 590q0 74 38.5 114.5t95.5 40.5q46 0 76 -35v26h82v-293q0 -63 -43 -96.5t-102 -33.5q-65 0 -102.5 25.5t-38.5 72.5h82q4 -41 59 -41q63 0 63 66v37q-41 -39 -87 -39q-53 0 -88 40.5t-35 115.5zM100 590q0 -94 64 -94q35 0 63 30v128q-26 28 -62 28q-65 0 -65 -92z " />
<glyph horiz-adv-x="356" d="M34 440v424h81v-164q47 45 102 45q43 0 74 -24t31 -74v-207h-82v180q0 31 -13 45t-41 14q-37 0 -71 -32v-207h-81z" />
<glyph horiz-adv-x="149" d="M31 825q0 20 14.5 33.5t34.5 13.5q21 0 35 -13.5t14 -33.5t-14 -34t-35 -14q-20 0 -34.5 14t-14.5 34zM40 440v296h81v-296h-81z" />
<glyph horiz-adv-x="149" d="M31 825q0 20 14.5 33.5t34.5 13.5q21 0 35 -13.5t14 -33.5t-14 -34t-35 -14q-20 0 -34.5 14t-14.5 34zM40 321v415h81v-415h-81z" />
<glyph horiz-adv-x="305" d="M34 440v424h81v-263l102 135h86l-106 -132l118 -164h-96l-104 153v-153h-81z" />
<glyph horiz-adv-x="149" d="M34 440v424h81v-424h-81z" />
<glyph horiz-adv-x="554" d="M34 440v296h81v-36q47 45 100 45q66 0 91 -47q53 47 112 47q43 0 72.5 -24t29.5 -74v-207h-81v180q0 59 -52 59q-36 0 -69 -31v-1v-207h-82v180q0 59 -52 59q-37 0 -69 -32v-207h-81z" />
<glyph horiz-adv-x="356" d="M34 440v296h81v-36q47 45 102 45q43 0 74 -24t31 -74v-207h-82v180q0 31 -13 45t-41 14q-37 0 -71 -32v-207h-81z" />
<glyph horiz-adv-x="344" d="M17 588q0 71 42.5 114t113.5 43q70 0 112 -43t42 -114t-42 -114t-112 -43q-71 0 -113.5 43t-42.5 114zM101 588q0 -99 72 -99q71 0 71 99t-71 99q-72 0 -72 -99z" />
<glyph horiz-adv-x="343" d="M34 321v415h81v-31q42 40 88 40q53 0 88 -41t35 -116q0 -74 -39 -115.5t-95 -41.5q-45 0 -77 35v-145h-81zM115 522q26 -28 63 -28q64 0 64 94t-63 94q-34 0 -64 -30v-130z" />
<glyph horiz-adv-x="343" d="M17 588q0 75 38.5 116t95.5 41q46 0 76 -35v26h82v-415h-82v149q-42 -39 -87 -39q-53 0 -88 41.5t-35 115.5zM100 588q0 -94 64 -94q35 0 63 30v130q-26 28 -62 28q-65 0 -65 -94z" />
<glyph horiz-adv-x="246" d="M34 440v296h82v-46q38 55 82 55q24 0 38 -14v-68q-21 9 -43 9q-50 0 -77 -38v-194h-82z" />
<glyph horiz-adv-x="304" d="M17 529h82q4 -43 59 -43q23 0 37 9.5t14 25.5q0 17 -15 25t-55 13q-28 4 -44 8.5t-36.5 14t-30.5 27.5t-10 44q0 44 36 68t94 24q61 0 95 -24t36 -65h-83q-3 34 -50 34q-50 0 -50 -30q0 -15 14 -22.5t53 -13.5q22 -3 35.5 -6t32.5 -10t29.5 -16t18.5 -24.5t8 -36.5 q0 -45 -37 -72.5t-94 -27.5q-66 0 -101.5 27t-37.5 71z" />
<glyph horiz-adv-x="240" d="M8 677v59h53v80h81v-80h77v-59h-77v-138q0 -25 7 -36t27 -11q21 0 47 8v-55q-33 -14 -70 -14q-92 0 -92 97v149h-53z" />
<glyph horiz-adv-x="352" d="M34 528v208h81v-181q0 -31 12.5 -45t40.5 -14q37 0 69 32v208h81v-296h-81v35q-47 -45 -100 -45q-43 0 -73 24t-30 74z" />
<glyph horiz-adv-x="326" d="M8 736h89l43 -125l29 -84l28 84l43 125h78l-117 -296h-72z" />
<glyph horiz-adv-x="500" d="M8 736h86l39 -123l23 -83l24 83l38 123h70l40 -123l25 -84l23 84l38 122h77l-106 -295h-70l-38 121l-25 83l-25 -83l-38 -121h-72z" />
<glyph horiz-adv-x="327" d="M8 440l109 152l-103 144h89l59 -87l59 87h82l-98 -138l114 -158h-90l-69 101l-69 -101h-83z" />
<glyph horiz-adv-x="326" d="M8 736h89l43 -125l29 -84l28 84l43 125h78l-162 -415h-79l50 123z" />
<glyph horiz-adv-x="277" d="M17 440v59l149 178h-143v59h237v-59l-149 -178h149v-59h-243z" />
<glyph horiz-adv-x="339" d="M24 -45q0 96 153 96q21 0 46 -3v28q0 26 -14.5 38.5t-36.5 12.5q-55 0 -57 -50h-83q1 52 39.5 80t100.5 28q53 0 93 -23.5t40 -78.5v-203h-82v30q-45 -39 -101 -39q-48 0 -73 23.5t-25 60.5zM106 -37q0 -35 46 -35q38 0 71 28v46q-32 2 -42 2q-75 0 -75 -41z" />
<glyph horiz-adv-x="343" d="M34 -120v424h81v-159q42 40 88 40q53 0 88 -41t35 -116q0 -74 -39 -115.5t-95 -41.5q-45 0 -77 35v-26h-81zM115 -38q26 -28 63 -28q64 0 64 94t-63 94q-34 0 -64 -30v-130z" />
<glyph horiz-adv-x="322" d="M17 28q0 71 41 114t109 43q59 0 96.5 -29t41.5 -78h-83q-12 49 -55 49q-29 0 -47.5 -23.5t-18.5 -75.5q0 -99 66 -99q44 0 54 47h83q-5 -48 -41.5 -76.5t-95.5 -28.5q-71 0 -110.5 42.5t-39.5 114.5z" />
<glyph horiz-adv-x="343" d="M17 28q0 75 38.5 116t95.5 41q46 0 76 -35v154h82v-424h-82v30q-42 -39 -87 -39q-53 0 -88 41.5t-35 115.5zM100 28q0 -94 64 -94q35 0 63 30v130q-26 28 -62 28q-65 0 -65 -94z" />
<glyph horiz-adv-x="324" d="M17 28q0 70 41.5 113.5t105.5 43.5q70 0 108.5 -43t33.5 -128h-205q4 -85 66 -85q24 0 34 8.5t16 26.5h84q-5 -41 -42 -67t-92 -26q-71 0 -110.5 42.5t-39.5 114.5zM103 65h119q-2 63 -58 63q-51 0 -61 -63z" />
<glyph horiz-adv-x="231" d="M8 117v59h53v34q0 103 107 103q35 0 55 -10v-56q-23 5 -39 5q-42 0 -42 -42v-34h81v-59h-81v-237h-81v237h-53z" />
<glyph horiz-adv-x="343" d="M17 30q0 74 38.5 114.5t95.5 40.5q46 0 76 -35v26h82v-293q0 -63 -43 -96.5t-102 -33.5q-65 0 -102.5 25.5t-38.5 72.5h82q4 -41 59 -41q63 0 63 66v37q-40 -39 -87 -39q-53 0 -88 40.5t-35 115.5zM100 30q0 -94 64 -94q35 0 63 30v128q-26 28 -62 28q-65 0 -65 -92z" />
<glyph horiz-adv-x="356" d="M34 -120v424h81v-164q47 45 102 45q43 0 74 -24t31 -74v-207h-82v180q0 31 -13 45t-41 14q-37 0 -71 -32v-207h-81z" />
<glyph horiz-adv-x="149" d="M31 265q0 20 14.5 33.5t34.5 13.5q21 0 35 -13.5t14 -33.5t-14 -34t-35 -14q-20 0 -34.5 14t-14.5 34zM40 -120v296h81v-296h-81z" />
<glyph horiz-adv-x="149" d="M31 265q0 20 14.5 33.5t34.5 13.5q21 0 35 -13.5t14 -33.5t-14 -34t-35 -14q-20 0 -34.5 14t-14.5 34zM40 176h81v-415h-81v415z" />
<glyph horiz-adv-x="305" d="M34 -120v424h81v-263l102 135h86l-106 -132l118 -164h-96l-104 153v-153h-81z" />
<glyph horiz-adv-x="149" d="M34 -120v424h81v-424h-81z" />
<glyph horiz-adv-x="554" d="M34 -120v296h81v-36q47 45 100 45q66 0 91 -47q53 47 112 47q43 0 72.5 -24t29.5 -74v-207h-81v180q0 59 -52 59q-36 0 -69 -31v-1v-207h-82v180q0 59 -52 59q-37 0 -69 -32v-207h-81z" />
<glyph horiz-adv-x="356" d="M34 -120v296h81v-36q47 45 102 45q43 0 74 -24t31 -74v-207h-82v180q0 31 -13 45t-41 14q-37 0 -71 -32v-207h-81z" />
<glyph horiz-adv-x="344" d="M17 28q0 71 42.5 114t113.5 43q70 0 112 -43t42 -114t-42 -114t-112 -43q-71 0 -113.5 43t-42.5 114zM101 28q0 -99 72 -99q71 0 71 99t-71 99q-72 0 -72 -99z" />
<glyph horiz-adv-x="343" d="M34 176h81v-31q42 40 88 40q53 0 88 -41t35 -116q0 -74 -39 -115.5t-95 -41.5q-45 0 -77 35v-145h-81v415zM115 -38q26 -28 63 -28q64 0 64 94t-63 94q-34 0 -64 -30v-130z" />
<glyph horiz-adv-x="343" d="M17 28q0 75 38.5 116t95.5 41q46 0 76 -35v26h82v-415h-82v149q-42 -39 -87 -39q-53 0 -88 41.5t-35 115.5zM100 28q0 -94 64 -94q35 0 63 30v130q-26 28 -62 28q-65 0 -65 -94z" />
<glyph horiz-adv-x="246" d="M34 -120v296h82v-46q38 55 82 55q24 0 38 -14v-68q-21 9 -43 9q-50 0 -77 -38v-194h-82z" />
<glyph horiz-adv-x="304" d="M17 -31h82q4 -43 59 -43q23 0 37 9.5t14 25.5q0 17 -15 25t-55 13q-28 4 -44 8.5t-36.5 14t-30.5 27.5t-10 44q0 44 36 68t94 24q61 0 95 -24t36 -65h-83q-3 34 -50 34q-50 0 -50 -30q0 -15 14 -22.5t53 -13.5q22 -3 35.5 -6t32.5 -10t29.5 -16t18.5 -24.5t8 -36.5 q0 -45 -37 -72.5t-94 -27.5q-66 0 -101.5 27t-37.5 71z" />
<glyph horiz-adv-x="240" d="M8 117v59h53v80h81v-80h77v-59h-77v-138q0 -25 7 -36t27 -11q21 0 47 8v-55q-33 -14 -70 -14q-92 0 -92 97v149h-53z" />
<glyph horiz-adv-x="352" d="M34 -32v208h81v-181q0 -31 12.5 -45t40.5 -14q37 0 69 32v208h81v-296h-81v35q-47 -45 -100 -45q-43 0 -73 24t-30 74z" />
<glyph horiz-adv-x="326" d="M8 176h89l43 -125l29 -84l28 84l43 125h78l-117 -296h-72z" />
<glyph horiz-adv-x="500" d="M8 176h86l39 -123l23 -83l24 83l38 123h70l40 -123l25 -84l23 84l38 122h77l-106 -295h-70l-38 121l-25 83l-25 -83l-38 -121h-72z" />
<glyph horiz-adv-x="327" d="M8 -120l109 152l-103 144h89l59 -87l59 87h82l-98 -138l114 -158h-90l-69 101l-69 -101h-83z" />
<glyph horiz-adv-x="326" d="M8 176h89l43 -125l29 -84l28 84l43 125h78l-162 -415h-79l50 123z" />
<glyph horiz-adv-x="277" d="M17 -61l149 178h-143v59h237v-59l-149 -178h149v-59h-243v59z" />
<glyph d="M41 209h121q8 -104 85 -128v236q-43 10 -72.5 21t-61 32.5t-48 57t-16.5 84.5q0 81 54.5 134.5t143.5 65.5v108h106v-109q189 -26 200 -211h-122q-7 95 -78 119v-221q36 -8 60 -15t54.5 -22.5t48.5 -34.5t31 -50.5t13 -72.5q0 -84 -59 -143t-148 -72v-108h-106v109 q-96 13 -149 68t-57 152zM163 525q0 -76 84 -102v200q-39 -9 -61.5 -33.5t-22.5 -64.5zM353 77q43 9 68.5 37.5t25.5 73.5q0 44 -24.5 67.5t-69.5 37.5v-216z" />
<glyph d="M71 259q0 109 47 180.5t134 89.5v110h106v-109q75 -12 119 -60t52 -123h-113q-12 82 -58 102v-378q45 20 57 98h114q-8 -74 -52.5 -121t-118.5 -59v-109h-106v110q-90 16 -135.5 87t-45.5 182zM185 259q0 -147 67 -184v368q-67 -42 -67 -184z" />
<glyph d="M34 0v89h84v203h-84v88h84v125q0 98 60.5 154t156.5 56q104 0 163 -51t64 -150h-122q-9 114 -105 114q-44 0 -73 -26.5t-29 -83.5v-138h211v-88h-211v-203h311v-89h-510z" />
<glyph d="M27 700h125l161 -276l154 276h105l-188 -320h149v-88h-171v-115h171v-88h-171v-89h-115v89h-171v88h171v115h-171v88h148z" />
<glyph d="M-29 -45h112q9 -91 79 -91q34 0 57 24t23 77v235h-157v88h157v223q0 99 46 151.5t129 52.5t127 -41.5t50 -116.5h-112q-5 38 -19 54.5t-43 16.5q-31 0 -46.5 -23t-15.5 -78v-239h157v-88h-157v-219q0 -97 -54 -150.5t-139 -53.5q-86 0 -137.5 46t-56.5 132z" />
<glyph d="M34 200v88h53q-2 40 -2 62q0 19 2 53h-53v88h65q23 106 82 165t150 59q212 0 240 -247h-126q-10 85 -35.5 121.5t-78.5 36.5q-89 0 -116 -135h134v-88h-145q-1 -17 -1 -53q0 -24 2 -62h144v-88h-134q26 -126 116 -126q53 0 78.5 36.5t35.5 121.5h126q-28 -247 -240 -247 q-187 0 -232 215h-65z" />
<glyph d="M31 0v700h164q115 0 170 -59.5t55 -201.5q0 -94 -26 -238h-82q22 143 22 226q0 100 -34 146.5t-115 46.5h-67v-620h-87zM179 0v499h88v-419h62q82 0 119 63.5t37 203.5q0 134 -41 353h82q43 -198 43 -349q0 -183 -57.5 -267t-172.5 -84h-160z" />
<glyph d="M34 350q0 131 50 222.5t136 125.5l27 122h109l-24 -105q42 -4 69 -12l26 117h109l-39 -173q65 -63 78 -179h-126q-19 158 -135 158q-70 0 -116 -71.5t-46 -204.5q0 -136 43.5 -206t118.5 -70q116 0 135 158h126q-12 -112 -72.5 -174t-153.5 -71l-24 -107h-109l25 113 q-35 9 -65 27l-31 -140h-109l52 231q-54 93 -54 239z" />
<glyph d="M30 0v516h98v-50q51 65 110 65q76 0 97 -71q28 35 61 54l62 122h108l-60 -118q50 -27 50 -109v-409h-98v384q0 21 -4 33l-112 -218v-199h-98v7l-60 -117h-107l167 327v167q0 62 -43 62q-37 0 -73 -45v-401h-98z" />
<glyph d="M18 206v89h57v114h-57v88h57v203h113l237 -517l-3 142v375h103v-203h57v-88h-57v-114h57v-89h-57v-206h-114l-236 517l2 -142v-375h-102v206h-57z" />
<glyph d="M48 452v88h301q-25 71 -126 71h-175v89h91h403v-89h-123q33 -30 48 -71h75v-88h-65q-9 -91 -72 -138.5t-155 -53.5l271 -260h-144l-261 259v85h107q122 0 134 108h-309z" />
<glyph d="M7 206v89h81l-15 114h-66v88h54l-27 203h99l38 -399l11 -156l19 156l57 399h101l58 -399l19 -159l10 159l34 399h86l-24 -203h51v-88h-61l-13 -114h74v-89h-85l-24 -206h-99l-60 385l-19 158l-20 -158l-60 -385h-99l-27 206h-93z" />
<glyph d="M52 0v81h510v-81h-510zM52 349q0 104 58.5 161.5t140.5 57.5q87 0 131 -60v94h-118v78h118v64h107v-64h73v-78h-73v-456h-107v52q-58 -67 -146 -67q-77 0 -130.5 57t-53.5 161zM161 349q0 -67 30.5 -102t75.5 -35q65 0 115 50v179q-48 46 -110 46q-46 0 -78.5 -35.5 t-32.5 -102.5z" />
<glyph d="M20 323v89h81v288h116v-288h2l205 288h120l-216 -288h216v-89h-202l231 -323h-139l-217 319v-319h-116v323h-81z" />
<glyph d="M53 611v89h492v-89h-188v-124l125 53v-92l-125 -53v-85l125 53v-92l-125 -53v-218h-116v169l-123 -52v93l123 52v84l-123 -52v93l123 52v172h-188z" />
<glyph d="M18 427v89h76v184h173q93 0 161.5 -47t83.5 -137h69v-89h-70q-14 -89 -82.5 -135.5t-161.5 -46.5h-57v-245h-116v427h-76zM210 332h57q105 0 125 95h-182v-95zM210 516h183q-21 97 -126 97h-57v-97z" />
<glyph d="M34 303v89h277q56 23 85 51.5t29 75.5q0 53 -30.5 81t-89.5 28q-120 0 -132 -114h-122q7 96 72 148.5t182 52.5q110 0 172 -49.5t62 -132.5q0 -89 -71 -141h98v-89h-298q-50 -22 -76.5 -50t-26.5 -72q0 -53 31 -81t90 -28q128 0 138 113h122q-6 -95 -74 -147.5 t-186 -52.5q-110 0 -172.5 49.5t-62.5 132.5q0 86 65 136h-82z" />
<glyph d="M34 350q0 145 60.5 241t162.5 118v111h105v-108q89 -13 145 -74.5t68 -169.5h-126q-14 122 -87 150v-536q73 28 87 150h126q-12 -108 -68 -169.5t-145 -74.5v-108h-105v110q-108 20 -165.5 115t-57.5 245zM152 350q0 -216 105 -264v526q-48 -25 -76.5 -92t-28.5 -170z " />
<glyph d="M65 0v700h169v120h105v-122q42 -4 76.5 -15t63 -31.5t45 -53.5t16.5 -76q0 -54 -31.5 -98t-80.5 -58q64 -11 102.5 -50.5t38.5 -109.5q0 -93 -63.5 -146.5t-166.5 -58.5v-121h-105v120h-169zM181 87h53v224h-53v-224zM181 396h53v217h-53v-217zM339 88q111 10 111 118 q0 95 -111 104v-222zM339 402q83 21 83 111q0 81 -83 96v-207z" />
<glyph d="M23 128l78 79q-42 64 -42 153q0 88 42 153l-78 78l62 63l78 -79q59 38 137 38t137 -38l78 79l62 -63l-78 -78q42 -65 42 -153q0 -89 -42 -153l78 -79l-62 -62l-78 78q-59 -37 -137 -37t-137 37l-78 -78zM173 360q0 -87 33 -132.5t94 -45.5t94 45.5t33 132.5t-33 132 t-94 45t-94 -45t-33 -132z" />
<glyph d="M30 189v88h90l39 149h-79v88h101l48 186h102l-48 -186h118l48 186h102l-48 -186h68v-88h-90l-39 -149h79v-88h-101l-49 -189h-102l49 189h-118l-49 -189h-102l49 189h-68zM222 277h118l39 149h-118z" />
<glyph horiz-adv-x="540" d="M51 162h111q7 -66 58 -88v166q-75 16 -119 49.5t-44 107.5q0 62 45 104.5t118 52.5v82h101v-83q153 -25 162 -165h-111q-6 56 -51 80v-154q77 -17 122.5 -51.5t45.5 -108.5q0 -64 -47.5 -109t-120.5 -57v-81h-101v82q-78 12 -122 56t-47 117zM161 406q0 -47 59 -68v136 q-59 -16 -59 -68zM321 68q64 18 64 75q0 49 -64 73v-148z" />
<glyph horiz-adv-x="471" d="M51 201q0 84 36.5 140t106.5 71v83h101v-82q59 -11 94 -48t41 -94h-102q-7 50 -33 65v-269q25 15 32 62h102q-6 -55 -41 -92t-93 -48v-82h-101v83q-71 15 -107 71t-36 140zM154 201q0 -95 40 -127v255q-40 -32 -40 -128z" />
<glyph horiz-adv-x="487" d="M26 0v79h63v142h-63v79h63v88q0 78 52 123.5t132 45.5q84 0 135 -40.5t55 -117.5h-112q-8 81 -78 81q-33 0 -54.5 -20t-21.5 -61v-99h163v-79h-163v-142h242v-79h-413z" />
<glyph horiz-adv-x="536" d="M34 543h118l127 -214l120 214h103l-144 -240h102v-80h-134v-77h134v-80h-134v-66h-109v66h-135v80h135v77h-135v80h105z" />
<glyph horiz-adv-x="551" d="M-26 -27h111q10 -71 67 -71q31 0 50 19.5t19 61.5v167h-117v79h117v159q0 77 51.5 123t126.5 46q76 0 125 -38.5t53 -109.5h-111q-10 71 -67 71q-31 0 -50 -19.5t-19 -61.5v-170h118v-79h-118v-156q0 -77 -51.5 -123t-126.5 -46q-76 0 -125 38.5t-53 109.5z" />
<glyph horiz-adv-x="570" d="M23 153v76h53q-2 28 -2 42q0 24 1 36h-52v76h65q22 82 78.5 128t140.5 46q87 0 147.5 -50t71.5 -144h-115q-15 115 -104 115q-78 0 -107 -95h131v-76h-144q-1 -11 -1 -36q0 -16 2 -42h143v-76h-129q29 -89 105 -89q89 0 104 116h115q-11 -94 -71.5 -144.5t-147.5 -50.5 q-83 0 -138.5 44.5t-78.5 123.5h-67z" />
<glyph horiz-adv-x="667" d="M84 0v543h183q104 0 153 -46.5t49 -156.5q0 -80 -20 -184h-88q18 115 18 175q0 68 -27.5 100t-92.5 32h-83v-463h-92zM227 0v387h93v-307h70q69 0 99.5 46t30.5 143q0 109 -33 274h89q34 -157 34 -270q0 -143 -52.5 -208t-159.5 -65h-171z" />
<glyph horiz-adv-x="576" d="M33 -93l58 187q-44 71 -44 177q0 111 49.5 185.5t138.5 93.5l27 86h101l-26 -81q20 -2 46 -10l29 91h101l-44 -139q53 -51 63 -134h-115q-15 115 -119 115q-65 0 -100.5 -54t-35.5 -153t35.5 -153t100.5 -54q104 0 119 116h115q-11 -92 -72.5 -142.5t-151.5 -52.5 l-25 -78h-100l28 91q-30 12 -43 20l-35 -111h-100z" />
<glyph horiz-adv-x="791" d="M77 0v402h101v-51q66 64 136 64q88 0 117 -67v1q30 30 72 48l63 96h102l-53 -81q99 -17 99 -137v-275h-101v252q0 72 -51 80l-116 -177v-155h-101v2l-57 -87h-102l159 242v95q0 42 -16 61.5t-52 19.5q-53 0 -99 -46v-287h-101z" />
<glyph horiz-adv-x="606" d="M15 153v76h75v78h-75v76h75v160h107l223 -394l-3 111v283h99v-160h74v-76h-74v-78h74v-76h-74v-153h-107l-222 393l1 -110v-283h-98v153h-75z" />
<glyph horiz-adv-x="491" d="M34 338v77h243q-23 51 -102 51h-141v77h80h329v-77h-85q20 -22 31 -51h54v-77h-49q-18 -125 -169 -146l206 -192h-136l-200 189v77h80q92 0 108 72h-249z" />
<glyph horiz-adv-x="785" d="M13 153v76h108l-22 78h-86v76h65l-45 160h117l70 -294l24 -114l27 114l81 294h97l83 -294l31 -115l22 115l63 294h104l-41 -160h61v-76h-81l-20 -78h101v-76h-121l-39 -153h-97l-86 294l-31 116l-29 -116l-80 -294h-103l-43 153h-130z" />
<glyph horiz-adv-x="476" d="M47 0v76h409v-76h-409zM47 274q0 79 47 123t112 44q67 0 104 -47v73h-94v68h94v42h95v-42h51v-68h-51v-348h-95v41q-47 -53 -115 -53q-62 0 -105 44t-43 123zM148 274q0 -49 20 -72t52 -23q50 0 90 38v116q-38 36 -86 36q-33 0 -54.5 -23.5t-21.5 -71.5z" />
<glyph horiz-adv-x="517" d="M15 247v76h69v220h109v-205l156 205h113l-175 -220h181v-76h-167l192 -247h-133l-167 226v-226h-109v247h-69z" />
<glyph horiz-adv-x="461" d="M30 463v80h401v-80h-146v-82l97 38v-82l-97 -38v-58l97 38v-82l-97 -38v-159h-109v116l-97 -38v82l97 38v57l-97 -38v83l97 38v125h-146z" />
<glyph horiz-adv-x="530" d="M15 328v76h69v139h171q75 0 132 -36t71 -103h62v-76h-61q-13 -69 -70.5 -106.5t-133.5 -37.5h-62v-184h-109v328h-69zM193 263h62q78 0 93 65h-155v-65zM193 404h154q-18 61 -92 61h-62v-61z" />
<glyph horiz-adv-x="551" d="M47 231v77h233q44 17 67 38.5t23 56.5q0 36 -24.5 56.5t-66.5 20.5q-87 0 -98 -79h-111q5 74 59 115t150 41q90 0 142 -38.5t52 -103.5q0 -67 -48 -107h76v-77h-247q-81 -33 -81 -93q0 -35 24.5 -55.5t65.5 -20.5q95 0 104 80h111q-5 -74 -61.5 -115.5t-153.5 -41.5 q-90 0 -142 38.5t-52 104.5q0 63 43 103h-65z" />
<glyph horiz-adv-x="576" d="M47 271q0 114 52 189t145 92v84h101v-82q77 -12 127.5 -60.5t59.5 -130.5h-115q-12 88 -72 108v-400q60 20 72 109h115q-9 -82 -59.5 -131t-127.5 -61v-81h-101v83q-93 17 -145 92t-52 189zM162 271q0 -155 82 -195v390q-82 -40 -82 -195z" />
<glyph horiz-adv-x="561" d="M84 0v543h135v93h100v-94q78 -7 125.5 -42t47.5 -102q0 -41 -25 -72t-65 -42q50 -9 81 -42t31 -87q0 -72 -53.5 -111.5t-141.5 -43.5v-93h-100v93h-135zM193 76h26v160h-26v-160zM193 311h26v156h-26v-156zM319 77q85 4 85 79q0 72 -85 79v-158zM319 314q62 13 62 77 q0 61 -62 73v-150z" />
<glyph horiz-adv-x="562" d="M41 451l64 62l67 -65q49 27 109 27t108 -27l67 65l65 -62l-66 -64q30 -47 30 -108t-31 -109l66 -63l-64 -63l-67 65q-47 -26 -108 -26t-108 26l-67 -65l-64 63l66 63q-31 48 -31 109t30 108zM180 279q0 -63 28 -95t73 -32q44 0 72 32t28 95t-28 94.5t-72 31.5 q-45 0 -73 -31.5t-28 -94.5z" />
<glyph horiz-adv-x="604" d="M41 142v77h91l28 107h-79v76h100l37 141h98l-37 -141h114l37 141h98l-37 -141h72v-76h-93l-28 -107h81v-77h-101l-38 -142h-98l38 142h-114l-38 -142h-98l38 142h-71zM230 219h114l28 107h-114z" />
<glyph horiz-adv-x="633" d="M47 350q0 167 72.5 266t197.5 99t197 -99t72 -266t-72 -266t-197 -99t-197.5 99t-72.5 266zM162 350q0 -102 23 -168l203 423q-30 21 -71 21q-71 0 -113 -70.5t-42 -205.5zM246 95q30 -21 71 -21q71 0 113 70.5t42 205.5q0 102 -23 168z" />
<glyph horiz-adv-x="577" d="M47 285q0 136 63.5 217.5t178.5 81.5t178 -81t63 -218t-63 -218.5t-178 -81.5t-178.5 81.5t-63.5 218.5zM164 285q0 -221 125 -221q124 0 124 221q0 220 -124 220q-125 0 -125 -220z" />
<glyph horiz-adv-x="577" d="M47 285q0 136 63.5 217.5t178.5 81.5t178 -81t63 -218t-63 -218.5t-178 -81.5t-178.5 81.5t-63.5 218.5zM156 285q0 -83 20 -137l168 345q-24 12 -55 12q-133 0 -133 -220zM234 77q23 -13 55 -13q132 0 132 221q0 82 -19 136z" />
<glyph horiz-adv-x="393" d="M37 379v100l162 90h113v-569h-113v467z" />
<glyph horiz-adv-x="529" d="M40 377q11 207 230 207q101 0 156.5 -47t55.5 -132q0 -77 -58.5 -140.5t-211.5 -174.5h284v-90h-439v90q66 45 95.5 66t74 54.5t63.5 53t40.5 45.5t29 48.5t7.5 47.5q0 46 -25.5 71.5t-71.5 25.5q-105 0 -115 -125h-115z" />
<glyph horiz-adv-x="576" d="M41 55h118q5 -65 38.5 -93.5t95.5 -28.5q58 0 93 32.5t35 100.5q0 120 -156 120h-74v82h74q68 0 103 33.5t35 90.5q0 56 -30.5 83t-81.5 27q-58 0 -89.5 -29t-38.5 -94h-115q8 97 72 151t172 54q103 0 164.5 -51t61.5 -142q0 -50 -32.5 -96t-88.5 -62q70 -13 104.5 -60.5 t34.5 -105.5q0 -97 -69.5 -156.5t-174.5 -59.5q-120 0 -183 52.5t-68 151.5z" />
<glyph horiz-adv-x="569" d="M36 0v90l202 479h110l-204 -479h185v176h106v-176h100v-90h-100v-134h-106v134h-293z" />
<glyph horiz-adv-x="559" d="M47 44h118q9 -111 119 -111q119 0 119 162q0 156 -121 156q-73 0 -118 -66h-99v384h412v-90h-313v-209q57 66 147 66q94 0 151 -61.5t57 -179.5q0 -114 -66.5 -179t-168.5 -65q-111 0 -171.5 50t-65.5 143z" />
<glyph horiz-adv-x="596" d="M47 334q0 215 70.5 320t196.5 105q98 0 156.5 -48.5t66.5 -142.5h-115q-7 59 -37.5 84t-70.5 25q-70 0 -108 -69t-42 -238q30 38 77.5 61t98.5 23q97 0 153 -60t56 -173q0 -106 -71 -171t-174 -65q-125 0 -191 90t-66 259zM165 292q10 -225 139 -225q60 0 94 38.5 t34 112.5q0 151 -121 151q-41 0 -81.5 -22t-64.5 -55z" />
<glyph horiz-adv-x="490" d="M37 479v90h423v-90l-242 -613h-112l248 613h-317z" />
<glyph horiz-adv-x="615" d="M47 203q0 64 38.5 118t102.5 72q-55 20 -88.5 63t-33.5 102q0 92 67 146.5t174 54.5t174.5 -54.5t67.5 -146.5q0 -59 -33.5 -102t-88.5 -63q64 -18 102.5 -72.5t38.5 -117.5q0 -103 -73.5 -160.5t-187.5 -57.5t-187 57.5t-73 160.5zM162 204q0 -67 40 -102t105 -35 t105 35t40 102q0 59 -38 100t-107 41t-107 -41t-38 -100zM181 557q0 -56 32.5 -91t93.5 -35t93.5 35t32.5 91q0 60 -35 90t-91 30t-91 -30.5t-35 -89.5z" />
<glyph horiz-adv-x="596" d="M47 354q0 106 70.5 168t174.5 62q126 0 191.5 -89t65.5 -257q0 -198 -70 -292.5t-197 -94.5q-99 0 -158.5 47.5t-68.5 140.5h115q13 -106 112 -106q72 0 109.5 61t40.5 219q-30 -37 -77.5 -60.5t-98.5 -23.5q-98 0 -153.5 56.5t-55.5 168.5zM164 357q0 -143 121 -143 q42 0 82 21.5t64 54.5q-14 212 -139 212q-61 0 -94.5 -36t-33.5 -109z" />
<glyph d="M43 350q0 169 66.5 267t190.5 98t190.5 -98t66.5 -267t-66.5 -267t-190.5 -98t-190.5 98t-66.5 267zM165 350q0 -137 35 -206.5t100 -69.5t99.5 69.5t34.5 206.5t-34.5 206.5t-99.5 69.5t-100 -69.5t-35 -206.5z" />
<glyph d="M43 350q0 169 66.5 267t190.5 98t190.5 -98t66.5 -267t-66.5 -267t-190.5 -98t-190.5 98t-66.5 267zM155 350q0 -98 18 -159l198 413q-29 22 -71 22q-69 0 -107 -70t-38 -206zM229 96q29 -22 71 -22q69 0 107 70t38 206q0 98 -18 159z" />
<glyph d="M90 0v89h167v509l-167 -88v100l167 90h116v-611h164v-89h-280h-167z" />
<glyph d="M69 487q5 110 69 169t173 59q103 0 163 -52t60 -149q0 -89 -70 -181.5t-233 -243.5h314v-89h-459v89q174 165 222 218q104 122 107 207q0 57 -27.5 85.5t-76.5 28.5q-111 0 -121 -141h-121z" />
<glyph d="M59 189h121q10 -117 130 -117q55 0 90 35t35 94q0 51 -38.5 82.5t-116.5 31.5h-71v89h71q66 0 101.5 33.5t35.5 84.5q0 52 -29.5 79t-77.5 27q-109 0 -123 -118h-121q8 97 72 151t172 54q103 0 164.5 -51t61.5 -142q0 -50 -32.5 -95t-88.5 -62q70 -13 104.5 -59.5 t34.5 -104.5q0 -97 -70 -156.5t-174 -59.5q-240 0 -251 204z" />
<glyph d="M54 130v89l202 481h111l-203 -481h186v171h109v-171h94v-89h-94v-130h-109v130h-296z" />
<glyph d="M69 175h121q10 -103 116 -103q53 0 84.5 40.5t31.5 115.5q0 151 -113 151q-79 0 -122 -63h-101v384h412v-89h-311v-218q26 35 66.5 54.5t84.5 19.5q93 0 147.5 -60t54.5 -179q0 -113 -66.5 -178t-167.5 -65q-111 0 -171.5 48.5t-65.5 141.5z" />
<glyph d="M53 313q0 193 71.5 297.5t194.5 104.5q97 0 153 -45t64 -126h-121q-8 44 -31 64t-65 20q-65 0 -100.5 -61t-42.5 -195q31 37 76 59.5t94 22.5q97 0 153 -60t56 -173q0 -106 -71 -171t-174 -65q-125 0 -191 86.5t-66 241.5zM175 297q4 -225 135 -225q58 0 92 40.5 t34 108.5t-29.5 106.5t-89.5 38.5q-42 0 -80 -19t-62 -50z" />
<glyph d="M74 611v89h443v-89l-262 -611h-112l268 611h-337z" />
<glyph d="M44 187q0 64 36 111.5t100 63.5q-54 20 -85.5 61t-31.5 98q0 91 64.5 142.5t172.5 51.5t172.5 -51.5t64.5 -142.5q0 -57 -31.5 -98t-85.5 -61q64 -16 100 -63.5t36 -111.5q0 -101 -70 -151.5t-186 -50.5t-186 50.5t-70 151.5zM161 190q0 -59 37.5 -88.5t101.5 -29.5 t101.5 29.5t37.5 88.5q0 56 -35 89t-104 33t-104 -33t-35 -89zM179 518q0 -54 30 -85.5t91 -31.5t91 31.5t30 85.5q0 53 -33.5 81.5t-87.5 28.5t-87.5 -28.5t-33.5 -81.5z" />
<glyph d="M53 484q0 105 71 168t174 63q125 0 191 -86.5t66 -241.5q0 -195 -69.5 -298.5t-197.5 -103.5q-101 0 -160.5 48.5t-65.5 139.5h121q12 -101 105 -101q72 0 106 64t38 210q-30 -37 -75.5 -60t-94.5 -23q-98 0 -153.5 55.5t-55.5 165.5zM170 484q0 -133 121 -133 q87 0 141 68q-7 209 -134 209q-59 0 -93.5 -38t-34.5 -106z" />
<glyph d="M58 285q0 136 63.5 217.5t178.5 81.5t178.5 -81.5t63.5 -217.5q0 -137 -63.5 -218.5t-178.5 -81.5t-178.5 81.5t-63.5 218.5zM175 285q0 -221 125 -221t125 221q0 220 -125 220t-125 -220z" />
<glyph d="M58 285q0 136 63.5 217.5t178.5 81.5t178.5 -81.5t63.5 -217.5q0 -137 -63.5 -218.5t-178.5 -81.5t-178.5 81.5t-63.5 218.5zM168 285q0 -83 20 -137l167 345q-24 12 -55 12q-132 0 -132 -220zM246 76q24 -12 54 -12q132 0 132 221q0 82 -19 136z" />
<glyph d="M87 0v90h175v376l-175 -90v103l175 90h113v-479h165v-90h-278h-175z" />
<glyph d="M78 377q11 207 230 207q101 0 156.5 -47t55.5 -132q0 -77 -58.5 -140.5t-211.5 -174.5h284v-90h-439v90q66 45 95.5 66t74 54.5t63.5 53t40.5 45.5t29 48.5t7.5 47.5q0 46 -25.5 71.5t-71.5 25.5q-105 0 -115 -125h-115z" />
<glyph d="M52 55h118q5 -65 38 -93.5t95 -28.5q58 0 93.5 32.5t35.5 100.5q0 120 -156 120h-74v82h74q67 0 102 33.5t35 90.5q0 56 -30.5 83t-81.5 27q-57 0 -88.5 -29t-38.5 -94h-115q8 97 72 151t172 54q103 0 164.5 -51t61.5 -142q0 -50 -33 -95.5t-88 -62.5q70 -13 104.5 -60.5 t34.5 -105.5q0 -97 -70 -156.5t-174 -59.5q-120 0 -183 52.5t-68 151.5z" />
<glyph d="M54 0v90l202 479h110l-204 -479h185v176h106v-176h100v-90h-100v-134h-106v134h-293z" />
<glyph d="M62 44h118q9 -111 119 -111q119 0 119 162q0 156 -122 156q-72 0 -117 -66h-100v384h412v-90h-312v-209q55 66 146 66q94 0 151 -61.5t57 -179.5q0 -113 -66.5 -178.5t-167.5 -65.5q-111 0 -171.5 50t-65.5 143z" />
<glyph d="M45 334q0 214 71 319.5t196 105.5q99 0 157.5 -48.5t66.5 -142.5h-115q-8 59 -38.5 84t-70.5 25q-69 0 -107 -68t-42 -233q30 38 77 61t98 23q97 0 153.5 -60.5t56.5 -175.5q0 -108 -71 -173.5t-174 -65.5q-126 0 -192 90t-66 259zM163 298q9 -231 140 -231 q59 0 93.5 39.5t34.5 114.5q0 154 -121 154q-42 0 -82.5 -22t-64.5 -55z" />
<glyph d="M73 479v90h457v-90l-263 -613h-111l268 613h-351z" />
<glyph d="M40 203q0 64 38.5 118t101.5 72q-55 20 -88.5 63t-33.5 102q0 92 67.5 146.5t174.5 54.5t174 -54.5t67 -146.5q0 -59 -33.5 -101.5t-87.5 -63.5q63 -18 101.5 -72t38.5 -118q0 -103 -73 -160.5t-187 -57.5t-187 57.5t-73 160.5zM155 204q0 -67 40 -102t105 -35t105 35 t40 102q0 59 -38 100t-107 41t-107 -41t-38 -100zM174 557q0 -56 32.5 -91t93.5 -35t93.5 35t32.5 91q0 59 -35 89.5t-91 30.5t-91 -30.5t-35 -89.5z" />
<glyph d="M45 354q0 106 70.5 168t174.5 62q126 0 192 -89t66 -257q0 -198 -70.5 -292.5t-196.5 -94.5q-100 0 -159.5 47.5t-67.5 140.5h115q13 -106 112 -106q72 0 109.5 61t40.5 219q-31 -37 -78 -60.5t-98 -23.5q-98 0 -154 56.5t-56 168.5zM162 357q0 -69 30.5 -106t90.5 -37 q42 0 82 21.5t64 54.5q-13 212 -139 212q-60 0 -94 -36t-34 -109z" />
<glyph horiz-adv-x="553" d="M47 271q0 130 62.5 208t167.5 78t167 -78t62 -208q0 -129 -62.5 -207.5t-166.5 -78.5q-105 0 -167.5 78.5t-62.5 207.5zM161 271q0 -99 31.5 -152t84.5 -53q51 0 83 53t32 152t-32 152t-83 53q-53 0 -84.5 -53t-31.5 -152z" />
<glyph horiz-adv-x="553" d="M47 271q0 130 62 208t168 78q105 0 167 -78t62 -208q0 -129 -62 -207.5t-167 -78.5q-106 0 -168 78.5t-62 207.5zM153 271q0 -69 18 -121l156 315q-23 14 -50 14q-55 0 -89.5 -53t-34.5 -155zM225 78q24 -15 52 -15q54 0 88 53t34 155q0 70 -18 122z" />
<glyph horiz-adv-x="362" d="M37 382v91l132 70h109v-543h-109v450z" />
<glyph horiz-adv-x="469" d="M47 378q4 85 57.5 132t140.5 47q84 0 133.5 -41t49.5 -116q0 -68 -53.5 -137.5t-179.5 -181.5h237v-81h-371v81q146 132 177 163q83 89 84 156q0 36 -22 57t-55 21q-77 0 -87 -100h-111z" />
<glyph horiz-adv-x="500" d="M44 147h111q11 -83 99 -83q45 0 70.5 23.5t25.5 66.5q0 39 -30 62.5t-93 23.5h-56v78h56q53 0 80.5 24.5t27.5 62.5q0 34 -21.5 53.5t-58.5 19.5q-80 0 -94 -82h-111q6 74 62 117.5t143 43.5q91 0 141 -38.5t50 -110.5q0 -41 -26.5 -76.5t-73.5 -48.5q58 -10 86 -46.5 t28 -82.5q0 -76 -57 -122.5t-149 -46.5q-97 0 -151 42.5t-59 119.5z" />
<glyph horiz-adv-x="488" d="M36 99v81l162 363h105l-163 -363h136v122h106v-122h72v-81h-72v-99h-106v99h-240z" />
<glyph horiz-adv-x="482" d="M47 136h111q10 -72 86 -72q40 0 63.5 28.5t23.5 80.5q0 111 -88 111q-50 0 -87 -42h-95v301h347v-81h-252v-149q41 49 113 49q79 0 126 -48t47 -139t-54.5 -140.5t-143.5 -49.5q-90 0 -141 39.5t-56 111.5z" />
<glyph horiz-adv-x="514" d="M47 242q0 151 59 233t164 82q77 0 126 -37t55 -99h-111q-12 57 -73 57q-95 0 -106 -176q55 50 128 50q82 0 130 -46.5t48 -133.5q0 -83 -61 -135t-146 -52q-102 0 -157.5 68.5t-55.5 188.5zM159 235q1 -88 25 -129.5t76 -41.5q46 0 71.5 29.5t25.5 78.5q0 48 -24 76.5 t-71 28.5q-61 0 -103 -42z" />
<glyph horiz-adv-x="420" d="M37 462v81h353v-81l-194 -462h-105l197 462h-251z" />
<glyph horiz-adv-x="524" d="M47 145q0 49 29.5 86t79.5 50q-43 15 -69 47t-26 77q0 71 56 111.5t145 40.5t145 -40.5t56 -111.5q0 -45 -26 -77t-69 -47q51 -13 80 -50t29 -86q0 -78 -60 -119t-155 -41t-155 41t-60 119zM159 147q0 -84 103 -84q104 0 104 84q0 42 -27 66t-77 24t-76.5 -24t-26.5 -66z M172 401q0 -39 23.5 -61.5t66.5 -22.5t66.5 22.5t23.5 61.5q0 40 -25.5 59t-64.5 19t-64.5 -19t-25.5 -59z" />
<glyph horiz-adv-x="514" d="M47 374q0 84 60 133.5t146 49.5q102 0 158 -68.5t56 -188.5q0 -151 -59 -233t-164 -82q-81 0 -133 37.5t-59 112.5h112q12 -71 83 -71q50 0 76 45.5t30 145.5q-56 -51 -129 -51q-83 0 -130 42.5t-47 127.5zM156 374q0 -45 24 -70t72 -25q59 0 102 41q-2 82 -26 120 t-75 38q-45 0 -71 -28t-26 -76z" />
<glyph horiz-adv-x="430" d="M27 650q0 99 52 159t136 60t136 -60t52 -159t-52 -159t-136 -60t-136 60t-52 159zM126 650q0 -73 24 -110.5t65 -37.5t64.5 37.5t23.5 110.5t-23.5 110t-64.5 37t-65 -37t-24 -110z" />
<glyph horiz-adv-x="256" d="M17 724v83l103 53h95v-420h-95v337z" />
<glyph horiz-adv-x="372" d="M27 732q3 66 46.5 101.5t115.5 35.5q71 0 114 -33.5t43 -96.5q0 -52 -36.5 -94t-147.5 -134h186v-71h-311v71q21 18 52.5 44t48 39.5t38 32.5t32.5 31.5t22 27t15.5 27.5t4.5 26q0 61 -61 61q-58 0 -65 -68h-97z" />
<glyph horiz-adv-x="393" d="M27 554h97q7 -54 75 -54q71 0 71 60q0 61 -89 61h-52v70h52q78 0 78 57q0 52 -63 52q-58 0 -67 -54h-98q5 58 49.5 90.5t115.5 32.5t114.5 -32t43.5 -87q0 -30 -21 -55.5t-59 -35.5q48 -8 70 -35.5t22 -63.5q0 -58 -49 -93.5t-118 -35.5q-79 0 -124 32t-48 91z" />
<glyph horiz-adv-x="369" d="M17 508v73l131 279h92l-133 -279h99v93h89v-93h64v-73h-64v-68h-89v68h-189z" />
<glyph horiz-adv-x="367" d="M27 545h97q8 -45 62 -45q69 0 69 77q0 79 -67 79q-45 0 -69 -29h-81v233h283v-73h-202v-95q35 33 93 33q60 0 99 -38.5t39 -109.5q0 -67 -48 -106.5t-116 -39.5q-73 0 -114.5 29.5t-44.5 84.5z" />
<glyph horiz-adv-x="385" d="M24 628q0 115 49 178t131 63q65 0 106 -28t46 -76h-97q-14 35 -55 35q-70 0 -79 -124q40 37 95 37q70 0 109 -36t39 -104q0 -64 -48.5 -103t-116.5 -39q-84 0 -131.5 52.5t-47.5 144.5zM123 617q3 -117 80 -117q70 0 70 73q0 31 -17.5 51t-53.5 20q-44 0 -79 -27z" />
<glyph horiz-adv-x="319" d="M17 787v73h285v-73l-158 -347h-92l161 347h-196z" />
<glyph horiz-adv-x="395" d="M24 553q0 38 23.5 66.5t65.5 38.5q-35 11 -56 35.5t-21 59.5q0 54 45 85t117 31t116.5 -31t44.5 -85q0 -35 -21 -59.5t-56 -35.5q42 -10 65.5 -38.5t23.5 -66.5q0 -61 -48 -91.5t-125 -30.5q-78 0 -126 30.5t-48 91.5zM120 562q0 -62 78 -62q77 0 77 62q0 58 -77 58 q-78 0 -78 -58zM132 743q0 -54 66 -54q65 0 65 54q0 29 -18.5 43t-46.5 14q-66 0 -66 -57z" />
<glyph horiz-adv-x="385" d="M17 727q0 64 48.5 103t116.5 39q84 0 131.5 -52.5t47.5 -144.5q0 -115 -49 -178t-131 -63q-66 0 -108.5 30t-46.5 82h97q12 -43 58 -43q70 0 79 124q-40 -37 -95 -37q-70 0 -109 36t-39 104zM112 727q0 -32 17.5 -52t53.5 -20q44 0 79 28q-3 117 -80 117q-70 0 -70 -73z " />
<glyph horiz-adv-x="363" d="M27 622v74h116v110h75v-110h118v-74h-118v-109h-75v109h-116z" />
<glyph horiz-adv-x="363" d="M27 623v73h309v-73h-309z" />
<glyph horiz-adv-x="363" d="M27 557v73h309v-73h-309zM27 689v73h309v-73h-309z" />
<glyph horiz-adv-x="157" d="M27 330l13 178h90l-26 -178h-77z" />
<glyph horiz-adv-x="171" d="M27 489q0 25 17 41.5t42 16.5t41.5 -16.5t16.5 -41.5t-16.5 -41.5t-41.5 -16.5t-42 16.5t-17 41.5z" />
<glyph horiz-adv-x="246" d="M27 650q0 91 38 164.5t92 120.5h88q-54 -50 -86 -128t-32 -157t32 -157t86 -128h-88q-54 47 -92 120.5t-38 164.5z" />
<glyph horiz-adv-x="246" d="M1 365q53 50 85 128t32 157t-32 157t-85 128h88q54 -47 92 -120.5t38 -164.5t-38 -164.5t-92 -120.5h-88z" />
<glyph horiz-adv-x="430" d="M27 90q0 99 52 159t136 60t136 -60t52 -159t-52 -159t-136 -60t-136 60t-52 159zM126 90q0 -73 24 -110.5t65 -37.5t64.5 37.5t23.5 110.5t-23.5 110t-64.5 37t-65 -37t-24 -110z" />
<glyph horiz-adv-x="256" d="M17 164v83l103 53h95v-420h-95v337z" />
<glyph horiz-adv-x="372" d="M27 172q3 66 46.5 101.5t115.5 35.5q71 0 114 -33.5t43 -96.5q0 -52 -36.5 -94t-147.5 -134h186v-71h-311v71q21 18 52.5 44t48 39.5t38 32.5t32.5 31.5t22 27t15.5 27.5t4.5 26q0 61 -61 61q-58 0 -65 -68h-97z" />
<glyph horiz-adv-x="393" d="M27 -6h97q7 -54 75 -54q71 0 71 60q0 61 -89 61h-52v70h52q78 0 78 57q0 52 -63 52q-58 0 -67 -54h-98q5 58 49.5 90.5t115.5 32.5t114.5 -32t43.5 -87q0 -30 -21 -55.5t-59 -35.5q48 -8 70 -35.5t22 -63.5q0 -58 -49 -93.5t-118 -35.5q-79 0 -124 32t-48 91z" />
<glyph horiz-adv-x="369" d="M17 21l131 279h92l-133 -279h99v93h89v-93h64v-73h-64v-68h-89v68h-189v73z" />
<glyph horiz-adv-x="367" d="M27 -15h97q8 -45 62 -45q69 0 69 77q0 79 -67 79q-45 0 -69 -29h-81v233h283v-73h-202v-95q35 33 93 33q60 0 99 -38.5t39 -109.5q0 -67 -48 -106.5t-116 -39.5q-73 0 -114.5 29.5t-44.5 84.5z" />
<glyph horiz-adv-x="385" d="M24 68q0 115 49 178t131 63q65 0 106 -28t46 -76h-97q-14 35 -55 35q-70 0 -79 -124q40 37 95 37q70 0 109 -36t39 -104q0 -64 -48.5 -103t-116.5 -39q-84 0 -131.5 52.5t-47.5 144.5zM123 57q3 -117 80 -117q70 0 70 73q0 31 -17.5 51t-53.5 20q-44 0 -79 -27z" />
<glyph horiz-adv-x="319" d="M17 227v73h285v-73l-158 -347h-92l161 347h-196z" />
<glyph horiz-adv-x="395" d="M24 -7q0 38 23.5 66.5t65.5 38.5q-35 11 -56 35.5t-21 59.5q0 54 45 85t117 31t116.5 -31t44.5 -85q0 -35 -21 -59.5t-56 -35.5q42 -10 65.5 -38.5t23.5 -66.5q0 -61 -48 -91.5t-125 -30.5q-78 0 -126 30.5t-48 91.5zM120 2q0 -62 78 -62q77 0 77 62q0 58 -77 58 q-78 0 -78 -58zM132 183q0 -54 66 -54q65 0 65 54q0 29 -18.5 43t-46.5 14q-66 0 -66 -57z" />
<glyph horiz-adv-x="385" d="M17 167q0 64 48.5 103t116.5 39q84 0 131.5 -52.5t47.5 -144.5q0 -115 -49 -178t-131 -63q-66 0 -108.5 30t-46.5 82h97q12 -43 58 -43q70 0 79 124q-40 -37 -95 -37q-70 0 -109 36t-39 104zM112 167q0 -32 17.5 -52t53.5 -20q44 0 79 28q-3 117 -80 117q-70 0 -70 -73z " />
<glyph horiz-adv-x="363" d="M27 62v74h116v110h75v-110h118v-74h-118v-109h-75v109h-116z" />
<glyph horiz-adv-x="363" d="M27 63v73h309v-73h-309z" />
<glyph horiz-adv-x="363" d="M27 -3v73h309v-73h-309zM27 129v73h309v-73h-309z" />
<glyph horiz-adv-x="157" d="M27 -230l13 178h90l-26 -178h-77z" />
<glyph horiz-adv-x="176" d="M27 -71q0 25 17 41.5t42 16.5t41.5 -16.5t16.5 -41.5t-16.5 -41.5t-41.5 -16.5t-42 16.5t-17 41.5z" />
<glyph horiz-adv-x="246" d="M27 90q0 91 38 164.5t92 120.5h88q-54 -50 -86 -128t-32 -157t32 -157t86 -128h-88q-54 47 -92 120.5t-38 164.5z" />
<glyph horiz-adv-x="246" d="M1 -195q53 50 85 128t32 157t-32 157t-85 128h88q54 -47 92 -120.5t38 -164.5t-38 -164.5t-92 -120.5h-88z" />
<glyph horiz-adv-x="430" d="M27 490q0 99 52 159t136 60t136 -60t52 -159t-52 -159t-136 -60t-136 60t-52 159zM126 490q0 -73 24 -110.5t65 -37.5t64.5 37.5t23.5 110.5t-23.5 110t-64.5 37t-65 -37t-24 -110z" />
<glyph horiz-adv-x="256" d="M17 564v83l103 53h95v-420h-95v337z" />
<glyph horiz-adv-x="372" d="M27 572q3 66 46.5 101.5t115.5 35.5q71 0 114 -33.5t43 -96.5q0 -52 -36.5 -94t-147.5 -134h186v-71h-311v71q21 18 52.5 44t48 39.5t38 32.5t32.5 31.5t22 27t15.5 27.5t4.5 26q0 61 -61 61q-58 0 -65 -68h-97z" />
<glyph horiz-adv-x="393" d="M27 394h97q7 -54 75 -54q71 0 71 60q0 61 -89 61h-52v70h52q78 0 78 57q0 52 -63 52q-58 0 -67 -54h-98q5 58 49.5 90.5t115.5 32.5t114.5 -32t43.5 -87q0 -30 -21 -55.5t-59 -35.5q48 -8 70 -35.5t22 -63.5q0 -58 -49 -93.5t-118 -35.5q-79 0 -124 32t-48 91z" />
<glyph horiz-adv-x="369" d="M17 348v73l131 279h92l-133 -279h99v93h89v-93h64v-73h-64v-68h-89v68h-189z" />
<glyph horiz-adv-x="367" d="M27 385h97q8 -45 62 -45q69 0 69 77q0 79 -67 79q-45 0 -69 -29h-81v233h283v-73h-202v-95q35 33 93 33q60 0 99 -38.5t39 -109.5q0 -67 -48 -106.5t-116 -39.5q-73 0 -114.5 29.5t-44.5 84.5z" />
<glyph horiz-adv-x="385" d="M24 468q0 115 49 178t131 63q65 0 106 -28t46 -76h-97q-14 35 -55 35q-70 0 -79 -124q40 37 95 37q70 0 109 -36t39 -104q0 -64 -48.5 -103t-116.5 -39q-84 0 -131.5 52.5t-47.5 144.5zM123 457q3 -117 80 -117q70 0 70 73q0 31 -17.5 51t-53.5 20q-44 0 -79 -27z" />
<glyph horiz-adv-x="319" d="M17 627v73h285v-73l-158 -347h-92l161 347h-196z" />
<glyph horiz-adv-x="395" d="M24 393q0 38 23.5 66.5t65.5 38.5q-35 11 -56 35.5t-21 59.5q0 54 45 85t117 31t116.5 -31t44.5 -85q0 -35 -21 -59.5t-56 -35.5q42 -10 65.5 -38.5t23.5 -66.5q0 -61 -48 -91.5t-125 -30.5q-78 0 -126 30.5t-48 91.5zM120 402q0 -62 78 -62q77 0 77 62q0 58 -77 58 q-78 0 -78 -58zM132 583q0 -54 66 -54q65 0 65 54q0 29 -18.5 43t-46.5 14q-66 0 -66 -57z" />
<glyph horiz-adv-x="385" d="M17 567q0 64 48.5 103t116.5 39q84 0 131.5 -52.5t47.5 -144.5q0 -115 -49 -178t-131 -63q-66 0 -108.5 30t-46.5 82h97q12 -43 58 -43q70 0 79 124q-40 -37 -95 -37q-70 0 -109 36t-39 104zM112 567q0 -32 17.5 -52t53.5 -20q44 0 79 28q-3 117 -80 117q-70 0 -70 -73z " />
<glyph horiz-adv-x="430" d="M27 210q0 99 52 159t136 60t136 -60t52 -159t-52 -159t-136 -60t-136 60t-52 159zM126 210q0 -73 24 -110.5t65 -37.5t64.5 37.5t23.5 110.5t-23.5 110t-64.5 37t-65 -37t-24 -110z" />
<glyph horiz-adv-x="256" d="M17 284v83l103 53h95v-420h-95v337z" />
<glyph horiz-adv-x="372" d="M27 292q3 66 46.5 101.5t115.5 35.5q71 0 114 -33.5t43 -96.5q0 -52 -36.5 -94t-147.5 -134h186v-71h-311v71q21 18 52.5 44t48 39.5t38 32.5t32.5 31.5t22 27t15.5 27.5t4.5 26q0 61 -61 61q-58 0 -65 -68h-97z" />
<glyph horiz-adv-x="393" d="M27 114h97q7 -54 75 -54q71 0 71 60q0 61 -89 61h-52v70h52q78 0 78 57q0 52 -63 52q-58 0 -67 -54h-98q5 58 49.5 90.5t115.5 32.5t114.5 -32t43.5 -87q0 -30 -21 -55.5t-59 -35.5q48 -8 70 -35.5t22 -63.5q0 -58 -49 -93.5t-118 -35.5q-79 0 -124 32t-48 91z" />
<glyph horiz-adv-x="369" d="M17 68v73l131 279h92l-133 -279h99v93h89v-93h64v-73h-64v-68h-89v68h-189z" />
<glyph horiz-adv-x="367" d="M27 105h97q8 -45 62 -45q69 0 69 77q0 79 -67 79q-45 0 -69 -29h-81v233h283v-73h-202v-95q35 33 93 33q60 0 99 -38.5t39 -109.5q0 -67 -48 -106.5t-116 -39.5q-73 0 -114.5 29.5t-44.5 84.5z" />
<glyph horiz-adv-x="385" d="M24 188q0 115 49 178t131 63q65 0 106 -28t46 -76h-97q-14 35 -55 35q-70 0 -79 -124q40 37 95 37q70 0 109 -36t39 -104q0 -64 -48.5 -103t-116.5 -39q-84 0 -131.5 52.5t-47.5 144.5zM123 177q3 -117 80 -117q70 0 70 73q0 31 -17.5 51t-53.5 20q-44 0 -79 -27z" />
<glyph horiz-adv-x="319" d="M17 347v73h285v-73l-158 -347h-92l161 347h-196z" />
<glyph horiz-adv-x="395" d="M24 113q0 38 23.5 66.5t65.5 38.5q-35 11 -56 35.5t-21 59.5q0 54 45 85t117 31t116.5 -31t44.5 -85q0 -35 -21 -59.5t-56 -35.5q42 -10 65.5 -38.5t23.5 -66.5q0 -61 -48 -91.5t-125 -30.5q-78 0 -126 30.5t-48 91.5zM120 122q0 -62 78 -62q77 0 77 62q0 58 -77 58 q-78 0 -78 -58zM132 303q0 -54 66 -54q65 0 65 54q0 29 -18.5 43t-46.5 14q-66 0 -66 -57z" />
<glyph horiz-adv-x="385" d="M17 287q0 64 48.5 103t116.5 39q84 0 131.5 -52.5t47.5 -144.5q0 -115 -49 -178t-131 -63q-66 0 -108.5 30t-46.5 82h97q12 -43 58 -43q70 0 79 124q-40 -37 -95 -37q-70 0 -109 36t-39 104zM112 287q0 -32 17.5 -52t53.5 -20q44 0 79 28q-3 117 -80 117q-70 0 -70 -73z " />
<glyph horiz-adv-x="764" d="M50 96l269 269l-269 269l62 63l269 -269l271 270l62 -63l-270 -270l270 -270l-62 -62l-271 270l-269 -270z" />
<glyph horiz-adv-x="1000" d="M40 321v89h920v-89h-920z" />
<glyph horiz-adv-x="500" d="M40 321v89h420v-89h-420z" />
<glyph horiz-adv-x="343" d="M50 321v89h243v-89h-243z" />
<glyph horiz-adv-x="340" d="M50 313v97l240 194v-120l-149 -120l149 -119v-126z" />
<glyph horiz-adv-x="340" d="M50 119v120l149 120l-149 119v126l240 -194v-97z" />
<glyph horiz-adv-x="568" d="M50 313v97l240 194v-120l-149 -120l149 -119v-126zM278 313v97l240 194v-120l-149 -120l149 -119v-126z" />
<glyph horiz-adv-x="568" d="M50 119v120l149 120l-149 119v126l240 -194v-97zM278 119v120l149 120l-149 119v126l240 -194v-97z" />
<glyph horiz-adv-x="533" d="M40 169q0 40 12 72t30 50.5t40 36.5t42 30.5t35.5 31t20.5 39t-3 55.5h113q11 -56 -2.5 -93.5t-40.5 -58t-56 -39t-50.5 -49t-21.5 -75.5q0 -47 27.5 -72t75.5 -25q46 0 76.5 28t35.5 85h122q-6 -94 -68.5 -147t-165.5 -53q-102 0 -162 48.5t-60 135.5zM201 643 q0 31 20 51.5t51 20.5t51.5 -20.5t20.5 -51.5t-20.5 -51.5t-51.5 -20.5t-51 20.5t-20 51.5z" />
<glyph horiz-adv-x="320" d="M88 643q0 31 20.5 51.5t51.5 20.5t51.5 -20.5t20.5 -51.5t-20.5 -51.5t-51.5 -20.5t-51.5 20.5t-20.5 51.5zM97 0l20 484h87l20 -484h-127z" />
<glyph horiz-adv-x="1064" d="M60 263q0 231 156.5 381.5t407.5 150.5q159 0 268 -95.5t109 -250.5q0 -94 -29 -170.5t-75 -121t-96.5 -68.5t-99.5 -24q-42 0 -71.5 18t-35.5 56q-83 -74 -170 -74q-63 0 -105 54.5t-42 153.5q0 159 82 250.5t189 91.5q71 0 112 -60l8 44h110l-70 -399q-5 -29 3.5 -44.5 t26.5 -15.5q63 0 112.5 88.5t49.5 209.5q0 126 -77 205t-218 79q-187 0 -315 -123.5t-128 -319.5q0 -173 93.5 -261t249.5 -88q59 0 132.5 13t116.5 29l-12 -72q-46 -17 -121.5 -30t-142.5 -13q-82 0 -156 25.5t-133 74t-94 128t-35 178.5zM392 284q0 -66 25 -100.5 t60 -34.5q63 0 121 51l50 284q-35 47 -94 47q-65 0 -113.5 -65t-48.5 -182z" />
<glyph horiz-adv-x="842" d="M50 245v79h742v-79h-742z" />
<glyph horiz-adv-x="439" d="M50 245v79h339v-79h-339z" />
<glyph horiz-adv-x="306" d="M50 245v79h206v-79h-206z" />
<glyph horiz-adv-x="454" d="M37 399q4 73 57.5 115.5t135.5 42.5q83 0 133.5 -39.5t50.5 -106.5q0 -35 -12.5 -62t-31 -41.5t-39 -30t-36 -27t-23 -32.5t0.5 -47h-105q-9 43 2 72t33 44t45 28.5t40.5 37t17.5 58.5q0 67 -76 67q-73 0 -82 -79h-111zM155 48q0 27 18 44.5t45 17.5q28 0 46 -17.5 t18 -44.5q0 -28 -18 -45.5t-46 -17.5q-27 0 -45 17.5t-18 45.5z" />
<glyph horiz-adv-x="454" d="M40 131q0 41 17.5 71t41.5 46t46.5 31.5t34 37.5t2.5 54h105q8 -37 1 -63.5t-22.5 -40t-36 -27.5t-38.5 -25t-30.5 -33t-12.5 -51q0 -67 76 -67q74 0 82 79h111q-4 -73 -57.5 -115.5t-135.5 -42.5t-133 39t-51 107zM172 494q0 27 18 45t46 18q27 0 45 -18t18 -45 t-18 -44.5t-45 -17.5q-28 0 -46 17.5t-18 44.5z" />
<glyph horiz-adv-x="304" d="M88 48q0 27 18 44.5t46 17.5t45.5 -17.5t17.5 -44.5q0 -28 -17.5 -45.5t-45.5 -17.5t-46 17.5t-18 45.5zM94 543h116l-16 -372h-84z" />
<glyph horiz-adv-x="304" d="M88 495q0 27 18 45t46 18t45.5 -18t17.5 -45t-17.5 -44.5t-45.5 -17.5t-46 17.5t-18 44.5zM94 0l16 372h84l16 -372h-116z" />
<glyph horiz-adv-x="362" d="M50 430q0 55 37.5 91t93.5 36t93.5 -36t37.5 -91t-37.5 -91t-93.5 -36t-93.5 36t-37.5 91zM120 430q0 -27 17 -44.5t44 -17.5t44 17.5t17 44.5t-17 44.5t-44 17.5t-44 -17.5t-17 -44.5z" />
<glyph horiz-adv-x="199" d="M50 543h99l-12 -206h-75z" />
<glyph horiz-adv-x="339" d="M50 543h99l-12 -206h-75zM190 543h99l-12 -206h-75z" />
<glyph horiz-adv-x="248" d="M46 466l59 201h105l-76 -201h-88z" />
<glyph horiz-adv-x="391" d="M46 466l59 201h105l-76 -201h-88zM198 466l58 201h105l-75 -201h-88z" />
<glyph horiz-adv-x="248" d="M46 466l76 201h88l-58 -201h-106z" />
<glyph horiz-adv-x="391" d="M46 466l76 201h88l-58 -201h-106zM198 466l75 201h88l-58 -201h-105z" />
<glyph horiz-adv-x="481" d="M50 241v82h149v141h83v-141h149v-82h-149v-141h-83v141h-149z" />
<glyph horiz-adv-x="481" d="M50 241v82h381v-82h-381z" />
<glyph horiz-adv-x="481" d="M50 151v82h381v-82h-381zM50 331v82h381v-82h-381z" />
<glyph horiz-adv-x="321" d="M60 271q0 117 46.5 212.5t113.5 155.5h100q-66 -64 -105.5 -165t-39.5 -203t39.5 -203t105.5 -165h-100q-67 61 -113.5 156t-46.5 212z" />
<glyph horiz-adv-x="321" d="M1 -97q66 64 105.5 165t39.5 203t-39.5 203t-105.5 165h101q66 -59 112.5 -155t46.5 -213t-46 -212t-113 -156h-101z" />
<glyph horiz-adv-x="321" d="M120 -97v736h181v-71h-72v-594h72v-71h-181z" />
<glyph horiz-adv-x="321" d="M20 -26h71v594h-71v71h181v-736h-181v71z" />
<glyph horiz-adv-x="329" d="M48 235v73q80 0 80 63v138q0 62 42.5 96t116.5 34h22v-71h-14q-30 0 -44 -17t-14 -41v-132q0 -39 -20 -69t-52 -38q32 -8 52 -38t20 -69v-132q0 -23 14 -40.5t44 -17.5h14v-71h-22q-73 0 -116 34t-43 95v139q0 64 -80 64z" />
<glyph horiz-adv-x="329" d="M20 -26h14q30 0 43.5 17t13.5 41v132q0 39 20.5 69t52.5 38q-32 8 -52.5 38t-20.5 69v132q0 24 -13.5 41t-43.5 17h-14v71h22q74 0 116.5 -34t42.5 -96v-138q0 -63 80 -63v-73q-80 0 -80 -64v-139q0 -61 -43 -95t-116 -34h-22v71z" />
<glyph horiz-adv-x="399" d="M20 -31l252 605h107l-252 -605h-107z" />
<glyph horiz-adv-x="399" d="M20 574h107l252 -605h-107z" />
<glyph horiz-adv-x="599" d="M51 145q0 93 91 148q-50 57 -50 116q0 62 49.5 105t125.5 43q83 0 133.5 -40t55.5 -114h-112q-4 43 -23.5 59t-53.5 16q-30 0 -49 -16.5t-19 -46.5q0 -48 55 -99l148 -140q16 47 16 111h106q0 -97 -52 -177l116 -110h-138l-42 40q-70 -55 -160 -55q-88 0 -142.5 43 t-54.5 117zM153 155q0 -43 30.5 -67t73.5 -24q56 0 93 31l-158 148q-39 -33 -39 -88z" />
<glyph horiz-adv-x="883" d="M40 369l370 370l63 -62l-263 -264h633v-89h-633l263 -262l-63 -62z" />
<glyph horiz-adv-x="883" d="M40 324v89h633l-263 264l63 62l370 -370l-370 -369l-63 62l262 262h-632z" />
<glyph horiz-adv-x="819" d="M40 400l370 371l369 -371l-62 -63l-262 263v-632h-89v633l-264 -264z" />
<glyph horiz-adv-x="819" d="M40 338l62 63l264 -263v633h89v-633l262 263l62 -63l-369 -370z" />
<glyph horiz-adv-x="718" d="M80 138v523h523v-89h-372l447 -448l-62 -62l-448 448v-372h-88z" />
<glyph horiz-adv-x="718" d="M40 124l447 448h-372v89h523v-523h-88v372l-448 -448z" />
<glyph horiz-adv-x="718" d="M40 599l62 62l448 -449v373h88v-523h-523v89l372 -1z" />
<glyph horiz-adv-x="718" d="M80 62v523h88v-373l448 449l62 -62l-447 -449l372 1v-89h-523z" />
<glyph horiz-adv-x="1663" d="M40 369l370 370l63 -62l-263 -264h1413v-89h-1413l263 -262l-63 -62z" />
<glyph horiz-adv-x="1663" d="M40 324v89h1413l-264 264l63 62l371 -370l-371 -369l-63 62l263 262h-1412z" />
<glyph horiz-adv-x="199" d="M50 577v226h99l-22 -226h-77z" />
<glyph horiz-adv-x="379" d="M50 752l132 141h147l-181 -141h-98z" />
<glyph horiz-adv-x="413" d="M50 893h77q0 -29 20.5 -47.5t59.5 -18.5t59 18.5t20 47.5h77q0 -73 -43.5 -112t-112.5 -39t-113 39t-44 112z" />
<glyph horiz-adv-x="503" d="M50 893h104l97 -66l98 66h104l-149 -141h-106z" />
<glyph horiz-adv-x="503" d="M50 752l148 141h106l149 -141h-104l-98 66l-97 -66h-104z" />
<glyph horiz-adv-x="453" d="M50 828q0 28 19.5 47t48.5 19q28 0 47.5 -19t19.5 -47t-19.5 -46.5t-47.5 -18.5q-29 0 -48.5 18.5t-19.5 46.5zM267 828q0 28 19.5 47t48.5 19t48.5 -19t19.5 -47t-19.5 -46.5t-48.5 -18.5t-48.5 18.5t-19.5 46.5z" />
<glyph horiz-adv-x="239" d="M50 828q0 28 20 47.5t49 19.5t49.5 -19.5t20.5 -47.5t-20.5 -47.5t-49.5 -19.5t-49 19.5t-20 47.5z" />
<glyph horiz-adv-x="379" d="M50 893h147l132 -141h-98z" />
<glyph horiz-adv-x="538" d="M50 752l109 141h137l-155 -141h-91zM242 752l109 141h137l-155 -141h-91z" />
<glyph horiz-adv-x="425" d="M50 784v78h325v-78h-325z" />
<glyph horiz-adv-x="335" d="M50 821q0 45 33.5 72t83.5 27q51 0 84.5 -27t33.5 -72t-33.5 -72t-84.5 -27q-50 0 -83.5 27t-33.5 72zM134 809q11 -34 46 -22q32 11 21 46q-12 34 -46 22q-34 -10 -21 -46z" />
<glyph horiz-adv-x="475" d="M50 794q19 48 49.5 73.5t64.5 25.5q30 0 82.5 -22.5t65.5 -22.5q32 0 53 41l60 -28q-18 -48 -48.5 -73.5t-65.5 -25.5q-30 0 -82 22.5t-66 22.5q-33 0 -53 -41z" />
<glyph horiz-adv-x="336" d="M50 583l106 109h130l-144 -109h-92z" />
<glyph horiz-adv-x="366" d="M50 692h75q0 -43 58 -43q57 0 57 43h76q0 -56 -37.5 -86t-95.5 -30t-95.5 30t-37.5 86z" />
<glyph horiz-adv-x="433" d="M50 692h95l71 -42l73 42h94l-124 -109h-84z" />
<glyph horiz-adv-x="433" d="M50 583l125 109h84l124 -109h-94l-73 41l-71 -41h-95z" />
<glyph horiz-adv-x="392" d="M50 642q0 24 17.5 40t41.5 16t41.5 -16t17.5 -40t-17.5 -39.5t-41.5 -15.5t-41.5 15.5t-17.5 39.5zM225 642q0 24 17 40t41 16t41.5 -16t17.5 -40t-17.5 -39.5t-41.5 -15.5t-41 15.5t-17 39.5z" />
<glyph horiz-adv-x="220" d="M50 642q0 24 17.5 40t42.5 16t42.5 -16t17.5 -40t-17.5 -39.5t-42.5 -15.5t-42.5 15.5t-17.5 39.5z" />
<glyph horiz-adv-x="336" d="M50 692h131l105 -109h-91z" />
<glyph horiz-adv-x="477" d="M50 583l88 109h122l-124 -109h-86zM217 583l87 109h123l-123 -109h-87z" />
<glyph horiz-adv-x="360" d="M50 600v72h260v-72h-260z" />
<glyph horiz-adv-x="290" d="M50 638q0 35 26.5 55.5t68.5 20.5t68.5 -20.5t26.5 -55.5t-26.5 -55.5t-68.5 -20.5t-68.5 20.5t-26.5 55.5zM112 638q0 -31 33 -31t33 31q0 32 -33 32t-33 -32z" />
<glyph horiz-adv-x="409" d="M50 618q31 77 92 77q24 0 67 -16t56 -16q22 0 37 29l57 -28q-30 -76 -91 -76q-24 0 -67.5 15t-56.5 15q-22 0 -37 -27z" />
</font>
</defs>
</svg>
