<?xml version="1.0" standalone="no"?>
<!DOCTYPE svg PUBLIC "-//W3C//DTD SVG 1.1//EN" "http://www.w3.org/Graphics/SVG/1.1/DTD/svg11.dtd" >
<svg xmlns="http://www.w3.org/2000/svg">
<metadata></metadata>
<defs>
<font id="vegan_sans_premium_light_italic" horiz-adv-x="600" >
<font-face units-per-em="1000" ascent="800" descent="-200" />
<missing-glyph horiz-adv-x="300" />
<glyph unicode="fb" horiz-adv-x="929" d="M101 458l10 58h90l10 59q16 90 89.5 137t177.5 47q87 0 161 -25l-48 -274q84 71 181 71q69 0 114.5 -52t45.5 -155q0 -86 -26.5 -154t-69.5 -106.5t-92 -58.5t-99 -20q-85 0 -127 61l-8 -46h-80l122 690q-41 10 -85 10q-66 0 -115.5 -32t-60.5 -93l-10 -59h120l-10 -58 h-120l-81 -458h-80l81 458h-90zM527 97l2 11q44 -56 125 -56q72 0 131.5 65.5t59.5 196.5q0 76 -31 113t-77 37q-88 0 -156 -61l2 12z" />
<glyph unicode="ff" horiz-adv-x="670" d="M101 458l10 58h90l17 99q26 144 180 144q45 0 73 -16l-10 -57q-42 11 -63 11q-85 0 -100 -82l-17 -99h240l17 99q26 144 180 144q45 0 73 -16l-10 -57q-42 11 -63 11q-85 0 -100 -82l-17 -99h150l-10 -58h-151l-80 -458h-80l80 458h-240l-80 -458h-80l80 458h-89z" />
<glyph unicode="fh" horiz-adv-x="936" d="M101 458l10 58h90l10 59q16 90 89.5 137t177.5 47q87 0 161 -25l-56 -316l6 31q42 36 94.5 59t100.5 23q73 0 112 -42t24 -127l-64 -362h-80l60 342q22 122 -87 122q-41 0 -89 -21t-81 -50l-69 -393h-80l122 690q-41 10 -85 10q-66 0 -115.5 -32t-60.5 -93l-10 -59h120 l-10 -58h-120l-81 -458h-80l81 458h-90z" />
<glyph unicode="fi" horiz-adv-x="590" d="M101 458l10 58h90l17 99q26 144 180 144q45 0 73 -16l-10 -57q-42 11 -63 11q-85 0 -100 -82l-17 -99h320l-91 -516h-80l81 458h-240l-81 -458h-80l81 458h-90zM530 653q0 24 20.5 43t45.5 19q20 0 33.5 -14t13.5 -34q0 -24 -20.5 -43t-45.5 -19q-20 0 -33.5 14t-13.5 34 z" />
<glyph unicode="fj" horiz-adv-x="590" d="M101 458l10 58h90l17 99q26 144 180 144q45 0 73 -16l-10 -57q-42 11 -63 11q-85 0 -100 -82l-17 -99h320l-128 -724h-80l118 666h-240l-81 -458h-80l81 458h-90zM530 653q0 24 20.5 43t45.5 19q20 0 33.5 -14t13.5 -34q0 -24 -20.5 -43t-45.5 -19q-20 0 -33.5 14 t-13.5 34z" />
<glyph unicode="fk" horiz-adv-x="845" d="M101 458l10 58h90l10 59q16 90 89.5 137t177.5 47q87 0 161 -25l-81 -459l259 241h96l-267 -240l199 -276h-97l-190 275l-48 -275h-80l122 691q-41 10 -84 10q-66 0 -116 -32.5t-61 -93.5l-10 -59h120l-10 -58h-120l-81 -458h-80l81 458h-90z" />
<glyph unicode="fl" horiz-adv-x="590" d="M101 458l10 58h90l10 59q16 90 89.5 137t177.5 47q87 0 161 -25l-129 -734h-80l122 690q-41 10 -85 10q-66 0 -115.5 -32t-60.5 -93l-10 -59h120l-10 -58h-120l-81 -458h-80l81 458h-90z" />
<glyph unicode="ft" horiz-adv-x="700" d="M101 458l10 58h90l17 99q26 144 180 144q45 0 73 -16l-10 -57q-42 11 -63 11q-85 0 -100 -82l-17 -99h240l25 144h80l-25 -144h150l-10 -58h-150l-57 -324q-15 -86 56 -86q37 0 91 17l-10 -57q-49 -23 -117 -23q-56 0 -85.5 33.5t-18.5 95.5l60 344h-240l-80 -458h-80 l80 458h-89z" />
<glyph unicode="ffb" horiz-adv-x="1249" d="M101 458l10 58h90l17 99q26 144 180 144q45 0 73 -16l-10 -57q-42 11 -63 11q-85 0 -100 -82l-17 -99h240l10 59q16 90 89.5 137t177.5 47q87 0 161 -25l-48 -274q84 71 181 71q69 0 114.5 -52t45.5 -155q0 -86 -26.5 -154t-69.5 -106.5t-92 -58.5t-99 -20q-85 0 -127 61 l-8 -46h-80l122 690q-41 10 -85 10q-66 0 -115.5 -32t-60.5 -93l-10 -59h120l-10 -58h-120l-81 -458h-80l81 458h-240l-81 -458h-80l81 458h-90zM847 97l2 11q44 -56 125 -56q72 0 131.5 65.5t59.5 196.5q0 76 -31 113t-77 37q-88 0 -156 -61l2 12z" />
<glyph unicode="ffh" horiz-adv-x="1256" d="M101 458l10 58h90l17 99q26 144 180 144q45 0 73 -16l-10 -57q-42 11 -63 11q-85 0 -100 -82l-17 -99h240l10 59q16 90 89.5 137t177.5 47q87 0 161 -25l-56 -316l6 31q42 36 94.5 59t100.5 23q73 0 112 -42t24 -127l-64 -362h-80l60 342q22 122 -87 122q-41 0 -89 -21 t-81 -50l-69 -393h-80l122 690q-41 10 -85 10q-66 0 -115.5 -32t-60.5 -93l-10 -59h120l-10 -58h-120l-81 -458h-80l81 458h-240l-81 -458h-80l81 458h-90z" />
<glyph unicode="ffi" horiz-adv-x="910" d="M101 458l10 58h90l17 99q26 144 180 144q45 0 73 -16l-10 -57q-42 11 -63 11q-85 0 -100 -82l-17 -99h240l17 99q26 144 180 144q45 0 73 -16l-10 -57q-42 11 -63 11q-85 0 -100 -82l-17 -99h320l-91 -516h-80l81 458h-240l-81 -458h-80l81 458h-241l-80 -458h-80l80 458 h-89zM850 653q0 24 20.5 43t45.5 19q20 0 33.5 -14t13.5 -34q0 -24 -20.5 -43t-45.5 -19q-20 0 -33.5 14t-13.5 34z" />
<glyph unicode="ffj" horiz-adv-x="910" d="M101 458l10 58h90l17 99q26 144 180 144q45 0 73 -16l-10 -57q-42 11 -63 11q-85 0 -100 -82l-17 -99h240l17 99q26 144 180 144q45 0 73 -16l-10 -57q-42 11 -63 11q-85 0 -100 -82l-17 -99h320l-128 -724h-80l118 666h-240l-81 -458h-80l81 458h-241l-80 -458h-80 l80 458h-89zM850 653q0 24 20.5 43t45.5 19q20 0 33.5 -14t13.5 -34q0 -24 -20.5 -43t-45.5 -19q-20 0 -33.5 14t-13.5 34z" />
<glyph unicode="ffk" horiz-adv-x="1165" d="M101 458l10 58h90l17 99q26 144 180 144q45 0 73 -16l-10 -57q-42 11 -63 11q-85 0 -100 -82l-17 -99h240l10 59q16 90 89.5 137t177.5 47q87 0 161 -25l-81 -459l259 241h96l-267 -240l199 -276h-97l-190 275l-48 -275h-80l122 690q-41 10 -85 10q-66 0 -115.5 -32 t-60.5 -93l-10 -59h120l-10 -58h-120l-81 -458h-80l81 458h-240l-81 -458h-80l81 458h-90z" />
<glyph unicode="ffl" horiz-adv-x="940" d="M101 458l10 58h90l17 99q26 144 180 144q45 0 73 -16l-10 -57q-42 11 -63 11q-85 0 -100 -82l-17 -99h240l10 59q16 90 89.5 137t177.5 47q87 0 161 -25l-129 -734h-80l121 686q-41 10 -83 10q-67 0 -116.5 -30t-60.5 -91l-10 -59h120l-10 -58h-121l-80 -458h-80l80 458 h-240l-80 -458h-80l80 458h-89z" />
<glyph unicode="fft" horiz-adv-x="1020" d="M101 458l10 58h90l17 99q26 144 180 144q45 0 73 -16l-10 -57q-42 11 -63 11q-85 0 -100 -82l-17 -99h240l17 99q26 144 180 144q45 0 73 -16l-10 -57q-42 11 -63 11q-85 0 -100 -82l-17 -99h240l25 144h80l-25 -144h150l-10 -58h-150l-57 -324q-15 -86 56 -86 q37 0 91 17l-10 -57q-49 -23 -117 -23q-56 0 -85.5 33.5t-18.5 95.5l61 344h-240l-81 -458h-80l81 458h-240l-81 -458h-80l81 458h-90z" />
<glyph unicode="tt" horiz-adv-x="720" d="M101 458l10 58h90l25 144h80l-25 -144h260l25 144h80l-25 -144h150l-10 -58h-150l-57 -324q-15 -86 56 -86q37 0 91 17l-10 -57q-49 -23 -117 -23q-56 0 -85.5 33.5t-18.5 95.5l60 344h-259l-57 -324q-15 -86 56 -86q37 0 91 17l-10 -57q-49 -23 -117 -23 q-56 0 -85.5 33.5t-18.5 95.5l60 344h-89z" />
<glyph unicode="&#xd;" horiz-adv-x="0" />
<glyph unicode=" "  horiz-adv-x="300" />
<glyph unicode="&#x09;" horiz-adv-x="300" />
<glyph unicode="&#xa0;" horiz-adv-x="300" />
<glyph unicode="!" horiz-adv-x="320" d="M107 36q0 29 22 49t50 20q22 0 36 -14.5t14 -36.5q0 -29 -22 -49t-50 -20q-22 0 -36 14.5t-14 36.5zM165 205l70 495h96l-104 -495h-62z" />
<glyph unicode="&#x22;" horiz-adv-x="340" d="M143 450l30 250h90l-58 -250h-62zM293 450l30 250h90l-58 -250h-62z" />
<glyph unicode="#" horiz-adv-x="726" d="M84 194l12 67h117l75 173h-111l11 67h129l86 199h81l-86 -199h184l86 199h81l-86 -199h101l-11 -67h-119l-75 -173h113l-12 -67h-130l-84 -194h-81l84 194h-184l-84 -194h-81l84 194h-100zM294 261h184l75 173h-184z" />
<glyph unicode="$" d="M86 205h93q-12 -126 92 -148l48 272q-36 9 -62.5 20t-53.5 29t-41 46.5t-14 66.5q0 92 68 152.5t171 69.5l19 107h78l-19 -108q90 -11 135 -64.5t33 -142.5h-93q11 117 -87 139l-45 -253q38 -9 65.5 -20t56 -29.5t44 -47.5t15.5 -68q0 -95 -74 -162t-178 -77l-19 -107 h-78l19 108q-91 11 -138 67t-35 150zM238 509q0 -43 25 -65.5t70 -34.5l42 237q-61 -7 -99 -41.5t-38 -95.5zM349 54q64 9 106.5 49t42.5 105q0 45 -27 68t-77 36z" />
<glyph unicode="%" horiz-adv-x="974" d="M131 445q0 114 65 189t161 75q69 0 109 -47t40 -127q0 -115 -65.5 -189.5t-160.5 -74.5q-69 0 -109 47t-40 127zM209 444q0 -58 22 -86.5t59 -28.5q57 0 97 53.5t40 153.5q0 58 -22 86.5t-58 28.5q-58 0 -98 -53.5t-40 -153.5zM225 0l558 700h87l-558 -700h-87zM591 165 q0 114 65 189t161 75q69 0 109 -47t40 -127q0 -115 -65.5 -189.5t-160.5 -74.5q-69 0 -109 47t-40 127zM669 164q0 -58 22 -86.5t59 -28.5q57 0 97 53.5t40 153.5q0 58 -22 86.5t-58 28.5q-58 0 -98 -53.5t-40 -153.5z" />
<glyph unicode="&#x26;" horiz-adv-x="707" d="M89 154q0 69 43.5 129.5t115.5 102.5q-44 64 -44 122q0 83 70 145t164 62q90 0 140 -49.5t38 -140.5h-93q5 66 -23.5 94.5t-73.5 28.5q-55 0 -94 -36t-39 -95q0 -63 48 -119l184 -212q43 73 62 179h86q-24 -133 -102 -232l116 -133h-107l-64 73q-98 -88 -218 -88 q-94 0 -151.5 45.5t-57.5 123.5zM179 172q0 -54 37 -87t94 -33q94 0 165 69l-187 215l-3 3q-106 -65 -106 -167z" />
<glyph unicode="'" horiz-adv-x="190" d="M143 450l30 250h90l-58 -250h-62z" />
<glyph unicode="(" horiz-adv-x="344" d="M111 251q0 95 26 185.5t69.5 162.5t92.5 127.5t103 98.5h77q-120 -102 -197.5 -260t-77.5 -316q0 -107 28.5 -209.5t79.5 -164.5h-77q-53 59 -88.5 159t-35.5 217z" />
<glyph unicode=")" horiz-adv-x="344" d="M-12 -125q120 102 197.5 260t77.5 316q0 107 -28.5 209.5t-79.5 164.5h77q54 -59 89.5 -158.5t35.5 -217.5q0 -95 -26 -185.5t-70 -162t-92.5 -127.5t-103.5 -99h-77z" />
<glyph unicode="*" horiz-adv-x="508" d="M132 463l166 58l-146 59l64 84l115 -111l1 167h98l-58 -167l154 111l34 -84l-167 -59l147 -58l-64 -84l-116 111l-1 -170h-98l59 170l-154 -111z" />
<glyph unicode="+" horiz-adv-x="560" d="M109 332l11 67h196l35 196h67l-35 -196h197l-11 -67h-197l-35 -197h-67l35 197h-196z" />
<glyph unicode="," horiz-adv-x="226" d="M32 -160l64 250h86l-79 -250h-71z" />
<glyph unicode="-" horiz-adv-x="279" d="M42 243l12 67h240l-12 -67h-240z" />
<glyph unicode="." horiz-adv-x="240" d="M67 36q0 29 22 49t50 20q22 0 36 -14.5t14 -36.5q0 -29 -22 -49t-50 -20q-22 0 -36 14.5t-14 36.5z" />
<glyph unicode="/" horiz-adv-x="442" d="M13 -40l452 780h87l-452 -780h-87z" />
<glyph unicode="0" horiz-adv-x="620" d="M101 258q0 197 93 327t242 130q99 0 152.5 -73.5t53.5 -199.5q0 -197 -92.5 -327t-242.5 -130q-99 0 -152.5 73.5t-53.5 199.5zM193 255q0 -101 34 -152t92 -51q97 0 164 105t67 288q0 101 -34 152t-92 51q-97 0 -164 -105t-67 -288z" />
<glyph unicode="1" horiz-adv-x="381" d="M134 535l14 75l180 90h86l-123 -700h-86l110 622z" />
<glyph unicode="2" horiz-adv-x="537" d="M65 0l12 67q210 173 260 219q133 123 156 213q6 23 6 47q0 51 -27.5 76.5t-74.5 25.5q-54 0 -100.5 -38.5t-67.5 -119.5h-93q23 106 98.5 165.5t174.5 59.5q85 0 132.5 -42t47.5 -119q0 -55 -24 -108t-80 -115t-120.5 -119.5t-172.5 -144.5h327l-12 -67h-442z" />
<glyph unicode="3" horiz-adv-x="568" d="M83 185h93q-6 -68 30 -100.5t96 -32.5q70 0 121.5 47.5t51.5 120.5q0 50 -37 80t-113 30h-71l12 67h71q82 0 129 44t47 108q0 49 -29.5 74t-77.5 25q-53 0 -99 -33t-67 -100h-93q24 92 98.5 146t172.5 54q86 0 136 -41.5t50 -115.5q0 -64 -43.5 -118.5t-116.5 -72.5 q63 -9 92.5 -48.5t29.5 -91.5q0 -103 -83 -172.5t-193 -69.5q-111 0 -165 53t-42 147z" />
<glyph unicode="4" horiz-adv-x="556" d="M55 143l12 67l300 490h93l-300 -490h207l32 180h86l-32 -180h100l-12 -67h-100l-25 -143h-86l25 143h-300z" />
<glyph unicode="5" horiz-adv-x="543" d="M79 165h93q-4 -59 29.5 -86t84.5 -27q76 0 124.5 57.5t48.5 167.5q0 121 -104 121q-94 0 -155 -76h-76l66 378h395l-11 -67h-319l-43 -244q69 76 167 76q78 0 124 -46.5t46 -138.5q0 -137 -81 -216t-194 -79q-101 0 -153 47.5t-42 132.5z" />
<glyph unicode="6" horiz-adv-x="586" d="M95 226q0 138 42 249t120.5 175.5t178.5 64.5q88 0 135.5 -44t42.5 -116h-93q-1 47 -27.5 70t-69.5 23q-86 0 -146 -78.5t-81 -208.5q39 41 94.5 67.5t110.5 26.5q84 0 131.5 -47.5t47.5 -137.5q0 -128 -87 -206.5t-200 -78.5q-93 0 -146 65t-53 176zM187 233 q0 -90 31 -135.5t88 -45.5q81 0 132.5 56t51.5 155q0 61 -28.5 93t-83.5 32q-110 0 -189 -93q-2 -40 -2 -62z" />
<glyph unicode="7" horiz-adv-x="482" d="M114 0l369 633h-331l11 67h412l-11 -67l-364 -633h-86z" />
<glyph unicode="8" horiz-adv-x="596" d="M79 152q0 79 49.5 136t126.5 75q-96 36 -96 134q0 99 74 158.5t191 59.5q92 0 145 -42.5t53 -117.5q0 -74 -42 -121.5t-111 -70.5q52 -13 82.5 -53t30.5 -96q0 -113 -81 -171t-206 -58q-98 0 -157 41.5t-59 125.5zM170 161q0 -109 137 -109q83 0 134 39t51 121 q0 53 -34 83.5t-103 30.5q-92 0 -138.5 -46t-46.5 -119zM250 499q0 -48 28.5 -77t88.5 -29q84 0 124 44.5t40 109.5q0 49 -32 75t-87 26q-71 0 -116.5 -38.5t-45.5 -110.5z" />
<glyph unicode="9" horiz-adv-x="586" d="M89 165h93q-3 -60 26.5 -86.5t75.5 -26.5q89 0 150.5 84t80.5 222q-39 -41 -94 -67t-110 -26q-84 0 -132 44.5t-48 131.5q0 123 85.5 198.5t198.5 75.5q99 0 149.5 -63.5t50.5 -177.5q0 -79 -14 -151.5t-42 -134t-68.5 -107t-96.5 -71t-122 -25.5q-91 0 -141.5 47.5 t-41.5 132.5zM222 449q0 -117 113 -117q55 0 103.5 25t82.5 66q1 14 1 44q0 90 -31 135.5t-88 45.5q-80 0 -130.5 -52.5t-50.5 -146.5z" />
<glyph unicode=":" horiz-adv-x="240" d="M67 36q0 29 22 49t50 20q22 0 36 -14.5t14 -36.5q0 -29 -22 -49t-50 -20q-22 0 -36 14.5t-14 36.5zM142 462q0 29 22 49t50 20q22 0 36 -14.5t14 -36.5q0 -29 -22 -49t-50 -20q-22 0 -36 14.5t-14 36.5z" />
<glyph unicode=";" horiz-adv-x="240" d="M35 -140l61 230h86l-76 -230h-71zM142 462q0 29 22 49t50 20q22 0 36 -14.5t14 -36.5q0 -29 -22 -49t-50 -20q-22 0 -36 14.5t-14 36.5z" />
<glyph unicode="&#x3c;" horiz-adv-x="560" d="M109 332l12 71l495 200l-12 -72l-408 -165l350 -164l-13 -70z" />
<glyph unicode="=" horiz-adv-x="560" d="M91 232l12 67h460l-12 -67h-460zM126 432l12 67h460l-12 -67h-460z" />
<glyph unicode="&#x3e;" horiz-adv-x="560" d="M74 132l12 72l408 165l-350 164l13 70l424 -200l-12 -71z" />
<glyph unicode="?" horiz-adv-x="514" d="M131 520q21 90 91 142.5t167 52.5q86 0 134 -37t48 -105q0 -58 -26 -102.5t-62 -72t-72 -53t-59.5 -60.5t-19.5 -80h-86q-3 49 13.5 86.5t42.5 59.5t57.5 44.5t58.5 42t45 52t18 73.5q0 42 -28 63.5t-76 21.5q-52 0 -93.5 -31.5t-59.5 -96.5h-93zM200 36q0 29 22 49 t50 20q22 0 36 -14.5t14 -36.5q0 -29 -22 -49t-50 -20q-22 0 -36 14.5t-14 36.5z" />
<glyph unicode="@" horiz-adv-x="942" d="M60 183q0 232 154 382t404 150q155 0 264.5 -96t109.5 -250q0 -76 -19 -140.5t-49.5 -108.5t-69 -75t-77 -45.5t-74.5 -14.5q-42 0 -67.5 19.5t-27.5 56.5q-85 -76 -176 -76q-62 0 -106 52.5t-44 154.5q0 70 16.5 127.5t44 96t64 65t75 38.5t77.5 12q35 0 67 -17t50 -44 l8 46h80l-72 -410q-5 -30 3.5 -46.5t26.5 -16.5q75 0 129.5 93t54.5 222q0 128 -81 213.5t-227 85.5q-191 0 -321 -130t-130 -328q0 -175 95.5 -269.5t254.5 -94.5q61 0 133.5 12.5t115.5 29.5l-10 -57q-47 -17 -122.5 -30t-141.5 -13q-82 0 -155 25.5t-131 74t-92 128 t-34 178.5zM369 202q0 -75 29.5 -112.5t68.5 -37.5q78 0 146 61v-1l54 306l-2 -10q-44 56 -115 56t-126 -65t-55 -197z" />
<glyph unicode="A" horiz-adv-x="626" d="M10 0l373 700h90l143 -700h-89l-37 198h-289l-101 -198h-90zM235 264h242l-44 237l-20 114l-57 -114z" />
<glyph unicode="B" horiz-adv-x="623" d="M90 0l123 700h217q57 0 101.5 -13t75.5 -47.5t31 -88.5q0 -66 -44.5 -120t-103.5 -69q52 -5 87 -36.5t35 -91.5q0 -106 -80 -170t-205 -64h-237zM188 67h151q95 0 138.5 43.5t43.5 114.5q0 94 -138 94h-151zM244 386h131q79 0 125.5 42.5t46.5 114.5q0 90 -128 90h-131z " />
<glyph unicode="C" horiz-adv-x="668" d="M102 267q0 195 106 321.5t267 126.5q103 1 167 -59q61 -57 61 -166v-10h-99v12q0 76 -36 114q-39 42 -105 42q-52 0 -99 -23.5t-85 -69t-61 -120t-23 -168.5q0 -108 43.5 -161.5t119.5 -53.5q66 0 119.5 41.5t80.5 126.5h99q-38 -116 -122.5 -175.5t-188.5 -59.5 q-118 0 -181 75.5t-63 206.5z" />
<glyph unicode="D" horiz-adv-x="703" d="M90 0l123 700h204q143 0 224 -75.5t81 -208.5q0 -189 -118.5 -302.5t-309.5 -113.5h-204zM188 67h118q143 0 233 85t90 262q0 113 -60.5 166t-162.5 53h-118z" />
<glyph unicode="E" horiz-adv-x="545" d="M90 0l123 700h405l-11 -67h-319l-41 -231h299l-12 -67h-299l-47 -268h319l-12 -67h-405z" />
<glyph unicode="F" horiz-adv-x="525" d="M90 0l123 700h395l-11 -67h-309l-45 -252h289l-12 -67h-289l-55 -314h-86z" />
<glyph unicode="G" horiz-adv-x="674" d="M101 261q0 199 106.5 326.5t267.5 127.5q103 0 165 -57q59 -56 59 -161v-7h-99v8q0 73 -36 110q-37 40 -101 40q-109 0 -188 -98t-79 -278q0 -108 43.5 -164t110.5 -56q104 0 202 85l26 146h-174l12 67h260l-62 -350h-86l12 70q-42 -37 -100.5 -61t-113.5 -24 q-109 0 -167 74t-58 202z" />
<glyph unicode="H" horiz-adv-x="723" d="M90 0l123 700h86l-52 -298h371l52 298h86l-123 -700h-86l59 335h-371l-59 -335h-86z" />
<glyph unicode="I" horiz-adv-x="266" d="M90 0l123 700h86l-123 -700h-86z" />
<glyph unicode="J" horiz-adv-x="559" d="M69 220h93q-4 -29 -4 -53q0 -50 18 -77q25 -38 89 -38q59 0 104 33t56 97l91 518h86l-87 -498q-19 -108 -92 -162.5t-170 -54.5q-96 0 -149 57q-40 42 -40 120q0 27 5 58z" />
<glyph unicode="K" horiz-adv-x="607" d="M90 0l123 700h86l-59 -335l321 335h101l-328 -331l243 -369h-107l-230 365l-64 -365h-86z" />
<glyph unicode="L" horiz-adv-x="520" d="M90 0l123 700h86l-111 -633h284l-12 -67h-370z" />
<glyph unicode="M" horiz-adv-x="865" d="M90 0l123 700h101l134 -609l365 609h85l-123 -700h-85l75 428l18 90l-306 -518h-85l-129 552l-17 -110l-78 -442h-78z" />
<glyph unicode="N" horiz-adv-x="713" d="M90 0l123 700h98l256 -586l17 110l84 476h78l-123 -700h-98l-256 586l-18 -110l-83 -476h-78z" />
<glyph unicode="O" horiz-adv-x="740" d="M103 276q0 192 111 315.5t282 123.5q124 0 194 -79t70 -212q0 -192 -111 -315.5t-282 -123.5q-124 0 -194 79t-70 212zM196 276q0 -111 50.5 -167.5t132.5 -56.5q121 0 204.5 96.5t83.5 275.5q0 112 -50 168t-133 56q-120 0 -204 -96.5t-84 -275.5z" />
<glyph unicode="P" horiz-adv-x="588" d="M90 0l123 700h212q90 0 151 -47.5t61 -136.5q0 -82 -43.5 -142t-107.5 -87t-138 -27h-126l-46 -260h-86zM234 327h126q84 0 135 47.5t51 136.5q0 61 -35 91.5t-97 30.5h-126z" />
<glyph unicode="Q" horiz-adv-x="740" d="M103 276q0 192 111 315.5t282 123.5q124 0 194 -79t70 -212q0 -151 -71 -262.5t-190 -154.5l137 -158h-112l-114 138q-28 -2 -43 -2q-124 0 -194 79t-70 212zM196 276q0 -111 50.5 -167.5t132.5 -56.5q121 0 204.5 96.5t83.5 275.5q0 112 -50 168t-133 56 q-120 0 -204 -96.5t-84 -275.5z" />
<glyph unicode="R" horiz-adv-x="610" d="M90 0l123 700h207q93 0 153 -43.5t60 -131.5q0 -100 -59.5 -160t-151.5 -78l158 -287h-102l-142 280h-111l-49 -280h-86zM237 347h121q86 0 135.5 42t49.5 131q0 113 -134 113h-121z" />
<glyph unicode="S" d="M86 205h93q-1 -14 -2 -26q0 -61 33 -91q39 -36 106 -36q75 0 128.5 41.5t53.5 114.5q0 24 -9.5 42t-21 28.5t-35 20t-38.5 13.5t-45 10q-43 9 -71.5 19t-62 28.5t-50.5 49t-17 72.5q0 100 79 162t194 62q109 0 167 -55q47 -45 47 -120q0 -17 -2 -35h-93q1 12 1 23 q-1 57 -31 86q-36 34 -101 34q-75 0 -123 -35t-48 -104q0 -23 9 -41t20 -28.5t34 -19.5t37.5 -13t44.5 -10q34 -7 57.5 -14t54 -20.5t49 -30.5t32 -44.5t13.5 -61.5q0 -104 -85.5 -172.5t-199.5 -68.5q-112 0 -172 57q-49 46 -49 125q0 18 3 38z" />
<glyph unicode="T" horiz-adv-x="542" d="M142 633l11 67h482l-11 -67h-198l-112 -633h-86l112 633h-198z" />
<glyph unicode="U" horiz-adv-x="704" d="M120 227l83 473h86l-79 -453q-6 -33 -6 -60q0 -53 22 -85q32 -50 130 -50q97 0 151.5 47t68.5 128l83 473h78l-79 -453q-22 -122 -106 -192t-208 -70t-184 64q-45 48 -45 124q0 25 5 54z" />
<glyph unicode="V" horiz-adv-x="626" d="M133 700h90l94 -501l20 -114l57 114l256 501h89l-373 -700h-90z" />
<glyph unicode="W" horiz-adv-x="910" d="M133 700h89l41 -478l9 -114l50 114l213 478h95l51 -478l11 -118l243 596h88l-303 -700h-90l-54 476l-12 118l-52 -118l-216 -476h-90z" />
<glyph unicode="X" horiz-adv-x="579" d="M20 0l281 357l-154 343h90l117 -272l209 272h91l-261 -332l166 -368h-90l-129 298l-229 -298h-91z" />
<glyph unicode="Y" horiz-adv-x="590" d="M153 700h89l118 -373l234 373h89l-294 -445l-45 -255h-86l45 255z" />
<glyph unicode="Z" horiz-adv-x="532" d="M40 0l12 67l453 566h-343l11 67h442l-11 -67l-453 -566h353l-12 -67h-452z" />
<glyph unicode="[" horiz-adv-x="330" d="M98 -125l167 950h190l-10 -57h-104l-147 -836h104l-10 -57h-190z" />
<glyph unicode="\" horiz-adv-x="433" d="M150 740h78l178 -780h-78z" />
<glyph unicode="]" horiz-adv-x="330" d="M-2 -125l10 57h104l147 836h-104l10 57h190l-167 -950h-190z" />
<glyph unicode="^" horiz-adv-x="527" d="M103 300l248 400h71l108 -400h-75l-82 321l-195 -321h-75z" />
<glyph unicode="_" horiz-adv-x="500" d="M26 -82l11 67h420l-11 -67h-420z" />
<glyph unicode="`" horiz-adv-x="309" d="M179 729h101l81 -148h-66z" />
<glyph unicode="a" horiz-adv-x="579" d="M88 192q0 86 26.5 154t69.5 106.5t92 58.5t99 20q85 0 127 -61l8 46h80l-91 -516h-80l14 81l-4 -24q-83 -72 -181 -72q-69 0 -114.5 52t-45.5 155zM175 202q0 -76 31 -113t77 -37q88 0 156 61l52 295q-44 56 -125 56q-72 0 -131.5 -65.5t-59.5 -196.5z" />
<glyph unicode="b" horiz-adv-x="579" d="M80 0l131 744h80l-50 -284q84 71 181 71q69 0 114.5 -52t45.5 -155q0 -86 -26.5 -154t-69.5 -106.5t-92 -58.5t-99 -20q-85 0 -127 61l-8 -46h-80zM179 108q44 -56 125 -56q72 0 131.5 65.5t59.5 196.5q0 76 -31 113t-77 37q-88 0 -156 -61v3z" />
<glyph unicode="c" horiz-adv-x="532" d="M88 192q0 147 76 243t207 96q89 0 139 -48q46 -44 45 -113v-14h-89q1 116 -106 116q-79 0 -132.5 -73t-53.5 -207q0 -148 111 -148q107 0 146 116h89q-22 -79 -89.5 -127t-156.5 -48q-94 0 -140 55.5t-46 151.5z" />
<glyph unicode="d" horiz-adv-x="579" d="M88 192q0 86 26.5 154t69.5 106.5t92 58.5t99 20q85 0 127 -61l48 274h80l-131 -744h-80l13 72l-3 -15q-83 -72 -181 -72q-69 0 -114.5 52t-45.5 155zM175 202q0 -76 31 -113t77 -37q88 0 156 61l52 295q-44 56 -125 56q-72 0 -131.5 -65.5t-59.5 -196.5z" />
<glyph unicode="e" horiz-adv-x="543" d="M88 192q0 146 79 242.5t200 96.5q112 -1 156 -75q26 -44 26 -107q0 -43 -12 -96h-360q-3 -29 -3 -60q0 -149 107 -149q99 0 137 96h89q-20 -65 -86.5 -110t-150.5 -45q-91 0 -136.5 55.5t-45.5 151.5zM187 309h268q5 27 5 50q0 43 -18 71q-26 42 -86 42q-57 0 -103 -42 t-66 -121z" />
<glyph unicode="f" horiz-adv-x="350" d="M101 458l10 58h89l18 99q26 144 180 144q45 0 73 -16l-10 -57q-42 11 -63 11q-85 0 -100 -82l-18 -99h151l-10 -58h-151l-80 -458h-80l80 458h-89z" />
<glyph unicode="g" horiz-adv-x="579" d="M50 -58h87q-1 -10 -1 -20q0 -37 22 -59q29 -27 90 -27q62 0 109 39t62 123l10 58q-84 -71 -181 -71q-69 0 -114.5 52t-45.5 155q0 86 26.5 154t69.5 106.5t92 58.5t99 20q85 0 127 -61l8 46h80l-90 -508q-20 -114 -90.5 -172.5t-171.5 -58.5t-150 45q-40 37 -40 92 q0 14 2 28zM175 202q0 -76 31 -113t77 -37q87 0 156 60l55 312l-3 -16q-44 56 -125 56q-72 0 -131.5 -65.5t-59.5 -196.5z" />
<glyph unicode="h" horiz-adv-x="586" d="M80 0l131 744h80l-52 -295q42 36 94.5 59t100.5 23q73 0 112 -42q28 -30 28 -83q0 -20 -4 -44l-64 -362h-80l60 342q4 20 4 38q0 84 -91 84q-41 0 -89 -21t-81 -50l-69 -393h-80z" />
<glyph unicode="i" horiz-adv-x="240" d="M80 0l91 516h80l-91 -516h-80zM180 653q0 24 20.5 43t45.5 19q20 0 33.5 -14t13.5 -34q0 -24 -20.5 -43t-45.5 -19q-20 0 -33.5 14t-13.5 34z" />
<glyph unicode="j" horiz-adv-x="240" d="M43 -208l128 724h80l-128 -724h-80zM180 653q0 24 20.5 43t45.5 19q20 0 33.5 -14t13.5 -34q0 -24 -20.5 -43t-45.5 -19q-20 0 -33.5 14t-13.5 34z" />
<glyph unicode="k" horiz-adv-x="495" d="M80 0l131 744h80l-82 -469l258 241h96l-267 -240l199 -276h-97l-190 275l-48 -275h-80z" />
<glyph unicode="l" horiz-adv-x="240" d="M80 0l131 744h80l-131 -744h-80z" />
<glyph unicode="m" horiz-adv-x="920" d="M80 0l91 516h80l-12 -67q94 82 192 82q112 0 133 -87q99 87 207 87q73 1 111 -41q27 -30 26 -82q0 -21 -4 -46l-64 -362h-80l60 342q4 22 4 40q0 33 -13 52q-20 30 -75 30q-41 0 -87 -21t-81 -52q-2 -20 -4 -29l-64 -362h-80l60 342q4 22 4 40q0 33 -13 52q-20 30 -75 30 q-41 0 -87.5 -21t-79.5 -50l-69 -393h-80z" />
<glyph unicode="n" horiz-adv-x="586" d="M80 0l91 516h80l-12 -67q42 36 94.5 59t100.5 23q73 0 112 -42q28 -30 28 -83q0 -20 -4 -44l-64 -362h-80l60 342q4 20 4 38q0 84 -91 84q-41 0 -89 -21t-81 -50l-69 -393h-80z" />
<glyph unicode="o" horiz-adv-x="582" d="M89 202q0 142 81.5 235.5t214.5 93.5q96 0 147.5 -59t51.5 -158q0 -142 -81.5 -235.5t-214.5 -93.5q-96 0 -147.5 59t-51.5 158zM175 201q0 -78 33.5 -117.5t90.5 -39.5q87 0 143 70.5t56 200.5q0 78 -33.5 117.5t-90.5 39.5q-87 0 -143 -70.5t-56 -200.5z" />
<glyph unicode="p" horiz-adv-x="579" d="M43 -208l128 724h80l-18 -101l8 44q83 72 181 72q69 0 114.5 -52t45.5 -155q0 -86 -26.5 -154t-69.5 -106.5t-92 -58.5t-99 -20q-85 0 -127 61l11 62q44 -56 125 -56q72 0 131.5 65.5t59.5 196.5q0 76 -31 113t-77 37q-88 0 -156 -61l-108 -611h-80z" />
<glyph unicode="q" horiz-adv-x="579" d="M88 192q0 86 26.5 154t69.5 106.5t92 58.5t99 20q85 0 127 -61l8 46h80l-128 -724h-80l47 265q-83 -72 -181 -72q-69 0 -114.5 52t-45.5 155zM175 202q0 -76 31 -113t77 -37q88 0 156 61l52 295q-44 56 -125 56q-72 0 -131.5 -65.5t-59.5 -196.5z" />
<glyph unicode="r" horiz-adv-x="391" d="M80 0l91 516h80l-16 -89q85 104 168 104q38 0 57 -27l-11 -64q-37 16 -66 16q-43 0 -87 -29.5t-73 -70.5l5 30l-68 -386h-80z" />
<glyph unicode="s" horiz-adv-x="508" d="M75 144h87q-2 -100 111 -100q56 0 94.5 28.5t38.5 77.5q0 17 -8 30t-17.5 20.5t-30 14.5t-30.5 9l-35 7q-27 5 -45.5 9.5t-44 15t-40.5 22.5t-26 33t-11 47q0 80 63.5 126.5t164.5 46.5q88 0 132 -38q37 -32 37 -86q0 -10 -1 -20h-87q3 85 -97 85q-58 0 -94 -24.5 t-36 -69.5q0 -17 7.5 -30t15 -20t27.5 -13.5t28.5 -8.5t33.5 -7q36 -7 59.5 -14t54 -21t46 -37.5t15.5 -55.5q0 -80 -66.5 -133t-163.5 -53q-101 0 -145 43q-38 36 -38 94q0 11 1 22z" />
<glyph unicode="t" horiz-adv-x="380" d="M101 458l10 58h90l25 144h80l-25 -144h150l-10 -58h-150l-57 -324q-3 -15 -3 -27q0 -59 59 -59q37 0 91 17l-10 -57q-49 -23 -117 -23q-56 -1 -86 33q-21 24 -21 64q0 15 3 32l60 344h-89z" />
<glyph unicode="u" horiz-adv-x="582" d="M107 154l64 362h80l-60 -342q-4 -21 -4 -38q0 -84 89 -84q41 0 88 21t80 50l69 393h80l-91 -516h-80l12 67q-42 -36 -93.5 -59t-99.5 -23q-73 -1 -111 41q-27 30 -27 83q0 21 4 45z" />
<glyph unicode="v" horiz-adv-x="505" d="M111 516h87l56 -313l19 -114l58 114l162 313h83l-281 -516h-77z" />
<glyph unicode="w" horiz-adv-x="788" d="M111 516h85l41 -313l14 -114l51 114l144 313h76l40 -313l14 -114l52 114l148 313h83l-261 -516h-75l-41 295l-15 114l-53 -114l-139 -295h-77z" />
<glyph unicode="x" horiz-adv-x="502" d="M20 0l231 268l-128 248h87l91 -187l157 187h87l-206 -239l143 -277h-87l-107 216l-181 -216h-87z" />
<glyph unicode="y" horiz-adv-x="505" d="M96 -208l124 214l-109 510h87l58 -302l19 -114l58 114l160 302h83l-402 -724h-78z" />
<glyph unicode="z" horiz-adv-x="440" d="M40 0l10 58l342 400h-261l10 58h350l-10 -58l-342 -400h271l-10 -58h-360z" />
<glyph unicode="{" horiz-adv-x="370" d="M117 321l10 57q52 0 81 27t36 68l37 210q12 64 60.5 103t125.5 39h29l-10 -57h-29q-37 0 -60 -24t-28 -51l-37 -210q-8 -47 -39 -85t-71 -48q36 -10 53.5 -49t9.5 -85l-37 -209q-5 -27 10 -51t52 -24h29l-10 -57h-29q-77 0 -112.5 39t-23.5 103l37 209q7 41 -12.5 68 t-71.5 27z" />
<glyph unicode="|" horiz-adv-x="258" d="M62 -160l173 980h78l-173 -980h-78z" />
<glyph unicode="}" horiz-adv-x="370" d="M0 -125l10 57h29q36 0 59 24t28 51l37 209q8 47 39.5 85.5t71.5 48.5q-37 10 -54.5 48t-9.5 85l37 210q5 27 -10 51t-52 24h-29l10 57h29q77 0 112.5 -39t23.5 -103l-37 -210q-7 -41 12 -68t71 -27l-10 -57q-52 0 -80.5 -27t-35.5 -68l-37 -209q-12 -64 -60.5 -103 t-124.5 -39h-29z" />
<glyph unicode="~" horiz-adv-x="560" d="M87 326q81 118 172 118q32 0 60.5 -14t45.5 -31t39 -31t43 -14q46 0 104 83l50 -32q-79 -118 -171 -118q-32 0 -60.5 14t-45.5 31t-39.5 31t-43.5 14q-45 0 -103 -83z" />
<glyph unicode="&#xa1;" horiz-adv-x="320" d="M75 -208l105 495h62l-71 -495h-96zM178 438q0 29 21.5 49t49.5 20q23 0 37 -14.5t14 -36.5q0 -29 -22 -49t-50 -20q-22 0 -36 14.5t-14 36.5z" />
<glyph unicode="&#xa2;" horiz-adv-x="532" d="M88 192q0 135 64.5 228t177.5 108l19 108h78l-19 -107q72 -11 111.5 -57t35.5 -116h-89q1 94 -69 112l-73 -420q75 18 107 112h89q-19 -69 -75.5 -115.5t-131.5 -56.5l-19 -108h-78l19 108q-74 11 -110.5 64.5t-36.5 139.5zM174 192q0 -119 72 -142l73 416 q-64 -17 -104.5 -87.5t-40.5 -186.5z" />
<glyph unicode="&#xa3;" horiz-adv-x="560" d="M20 0l12 67h90l40 227h-90l12 67h90l26 148q17 96 84.5 151t156.5 55q90 0 142 -50t40 -140h-93q5 66 -25.5 94.5t-75.5 28.5q-51 0 -90 -30t-51 -97l-28 -160h224l-12 -67h-224l-40 -227h324l-12 -67h-500z" />
<glyph unicode="&#xa4;" horiz-adv-x="664" d="M69 120l104 88q-28 47 -28 112q0 115 80 198l-67 82l51 47l70 -86q72 47 160 47q83 0 138 -47l102 86l43 -47l-104 -88q28 -50 28 -112q0 -115 -81 -198l68 -82l-51 -47l-70 85q-73 -46 -160 -46q-84 0 -139 47l-101 -86zM231 320q0 -71 36 -110t95 -39q82 0 140 61.5 t58 167.5q0 71 -36 110t-95 39q-82 0 -140 -61.5t-58 -167.5z" />
<glyph unicode="&#xa5;" horiz-adv-x="590" d="M95 94l11 67h180l24 133h-180l12 67h170l-159 339h89l129 -293l223 293h89l-265 -339h170l-12 -67h-180l-24 -133h180l-11 -67h-180l-17 -94h-86l17 94h-180z" />
<glyph unicode="&#xa6;" horiz-adv-x="258" d="M62 -160l80 455h78l-80 -455h-78zM164 420l71 400h78l-71 -400h-78z" />
<glyph unicode="&#xa7;" horiz-adv-x="610" d="M75 105h93q-7 -75 29 -109t101 -34q74 0 121.5 30t47.5 91q0 23 -9 39.5t-21.5 26t-36.5 16.5t-41 10t-48 7q-36 4 -59 8.5t-53 14.5t-47.5 24t-30 38t-12.5 56q0 99 114 171q-46 34 -46 100q0 95 77.5 153t192.5 58q110 0 167.5 -55t44.5 -155h-93q7 75 -29.5 109 t-101.5 34q-74 0 -121 -30t-47 -91q0 -23 9 -39.5t21.5 -26t36 -16.5t40.5 -10t48 -7q36 -4 59 -8.5t53.5 -14.5t48 -24t30 -38t12.5 -56q0 -99 -115 -171q47 -35 47 -100q0 -95 -78 -153t-193 -58q-110 0 -167 55t-44 155zM199 345q0 -21 8 -36t19.5 -24t33 -15.5 t38.5 -9.5t45 -6q78 -10 119 -23q29 20 50.5 56t21.5 68q0 25 -10.5 42.5t-33.5 26.5t-43.5 13.5t-55.5 8.5q-84 10 -120 23q-29 -19 -50.5 -55.5t-21.5 -68.5z" />
<glyph unicode="&#xa8;" horiz-adv-x="394" d="M166 653q0 24 20.5 43t45.5 19q20 0 33.5 -14t13.5 -34q0 -24 -20.5 -43t-45.5 -19q-20 0 -33.5 14t-13.5 34zM348 653q0 24 20.5 43t45.5 19q20 0 33.5 -14t13.5 -34q0 -24 -20.5 -43t-45.5 -19q-20 0 -33.5 14t-13.5 34z" />
<glyph unicode="&#xa9;" horiz-adv-x="830" d="M50 350q0 152 105 258.5t260 106.5t260 -106.5t105 -258.5t-105 -258.5t-260 -106.5t-260 106.5t-105 258.5zM117 350q0 -127 86.5 -216t211.5 -89t211.5 89t86.5 216t-86.5 216t-211.5 89t-211.5 -89t-86.5 -216zM230 350q0 97 50.5 155.5t131.5 58.5q66 0 110.5 -34.5 t55.5 -103.5h-71q-8 46 -30.5 66.5t-64.5 20.5q-51 0 -83 -41t-32 -122q0 -82 30.5 -123t84.5 -41q41 0 64 20.5t31 66.5h71q-11 -69 -55.5 -103.5t-110.5 -34.5q-84 0 -133 58t-49 157z" />
<glyph unicode="&#xaa;" horiz-adv-x="339" d="M120 553q0 93 52 141.5t117 48.5q44 0 71 -34l4 25h64l-51 -294h-64l5 32q-47 -41 -96 -41q-43 0 -72.5 30.5t-29.5 91.5zM187 557q0 -73 58 -73q39 0 82 36l24 137q-28 33 -69 33q-42 0 -68.5 -33t-26.5 -100z" />
<glyph unicode="&#xab;" horiz-adv-x="550" d="M91 232l12 71l276 200l-17 -96l-195 -141l146 -140l-17 -94zM301 232l12 71l276 200l-17 -96l-195 -141l146 -140l-17 -94z" />
<glyph unicode="&#xac;" horiz-adv-x="560" d="M109 332l11 67h460l-46 -264h-67l35 197h-393z" />
<glyph unicode="&#xad;" horiz-adv-x="279" d="M42 243l12 67h240l-12 -67h-240z" />
<glyph unicode="&#xae;" horiz-adv-x="578" d="M50 477q0 100 68.5 169t170.5 69t170.5 -69t68.5 -169t-68.5 -169t-170.5 -69t-170.5 69t-68.5 169zM108 477q0 -77 52 -131.5t129 -54.5t129 54.5t52 131.5t-52 131.5t-129 54.5t-129 -54.5t-52 -131.5zM203 353v255h85q40 0 69.5 -19t29.5 -57q0 -30 -19 -48.5 t-48 -25.5l75 -105h-57l-71 102h-15v-102h-49zM252 496h36q48 0 48 36q0 35 -48 35h-36v-71z" />
<glyph unicode="&#xaf;" horiz-adv-x="390" d="M158 612l11 63h290l-11 -63h-290z" />
<glyph unicode="&#xb0;" horiz-adv-x="428" d="M144 525q0 79 58 134.5t138 55.5q62 0 100 -38.5t38 -99.5q0 -79 -58 -134.5t-138 -55.5q-62 0 -100 38.5t-38 99.5zM212 534q0 -37 22 -60.5t59 -23.5q49 0 83 34t34 84q0 37 -21.5 60.5t-59.5 23.5q-49 0 -83 -34t-34 -84z" />
<glyph unicode="&#xb1;" horiz-adv-x="560" d="M50 0l12 67h460l-12 -67h-460zM109 332l11 67h196l35 196h67l-35 -196h197l-11 -67h-197l-35 -197h-67l35 197h-196z" />
<glyph unicode="&#xb4;" horiz-adv-x="309" d="M152 581l125 148h111l-162 -148h-74z" />
<glyph unicode="&#xb5;" horiz-adv-x="582" d="M43 -208l128 724h80l-60 -342q-22 -122 85 -122q41 0 88 21t80 50l69 393h80l-91 -516h-80l12 67q-42 -36 -93.5 -59t-99.5 -23q-49 0 -80 18l-38 -211h-80z" />
<glyph unicode="&#xb6;" horiz-adv-x="668" d="M147 480q0 105 78.5 162.5t183.5 57.5h282l-123 -700h-78l112 633h-80l-112 -633h-78l56 320h-46q-83 0 -139 41.5t-56 118.5z" />
<glyph unicode="&#xb7;" horiz-adv-x="220" d="M113 356q0 29 22 49t50 20q22 0 36 -14.5t14 -36.5q0 -29 -21.5 -49t-49.5 -20q-22 0 -36.5 14.5t-14.5 36.5z" />
<glyph unicode="&#xb8;" horiz-adv-x="288" d="M9 -234l9 51q25 -13 62 -13q25 0 46 13.5t21 35.5q0 18 -15 28t-36 10q-26 0 -45 -6l-13 31l78 84h61l-62 -67q43 4 70.5 -14t27.5 -55q0 -50 -42 -81t-94 -31q-41 0 -68 14z" />
<glyph unicode="&#xba;" horiz-adv-x="343" d="M120 559q0 79 52 131.5t131 52.5q59 0 93 -35t34 -93q0 -79 -51.5 -131.5t-130.5 -52.5q-60 0 -94 35t-34 93zM188 559q0 -80 68 -80q50 0 78.5 36.5t28.5 99.5q0 39 -18 59.5t-50 20.5q-51 0 -79 -36.5t-28 -99.5z" />
<glyph unicode="&#xbb;" horiz-adv-x="550" d="M55 32l17 96l195 141l-146 140l17 94l205 -200l-12 -71zM265 32l17 96l195 141l-146 140l17 94l205 -200l-12 -71z" />
<glyph unicode="&#xbc;" horiz-adv-x="805" d="M119 0l558 700h87l-558 -700h-87zM151 580l12 67l112 53h74l-74 -420h-74l62 353zM437 76l10 58l190 286h77l-191 -286h113l18 100h73l-18 -100h69l-10 -58h-69l-13 -76h-73l13 76h-189z" />
<glyph unicode="&#xbd;" horiz-adv-x="835" d="M119 0l558 700h87l-558 -700h-87zM151 580l12 67l112 53h74l-74 -420h-74l62 353zM489 0l9 56q27 21 65 49t58.5 43.5t47 37t40.5 35.5t27.5 31t19 32.5t5.5 32.5q0 54 -62 54q-66 0 -90 -77h-78q14 64 61.5 99.5t116.5 35.5q58 0 93.5 -27.5t35.5 -79.5 q0 -61 -43 -106.5t-175 -144.5q-13 -10 -20 -15h194l-9 -56h-296z" />
<glyph unicode="&#xbe;" horiz-adv-x="898" d="M119 391h78q-1 -33 17.5 -47.5t59.5 -14.5q98 0 98 81q0 59 -87 59h-55l10 58h55q46 0 72 19.5t26 56.5q0 48 -66 48q-36 0 -57.5 -14.5t-33.5 -47.5h-79q15 56 63.5 88t116.5 32q61 0 96.5 -27t35.5 -74q0 -38 -27 -67.5t-75 -40.5q42 -6 61.5 -30t19.5 -56 q0 -62 -56 -102.5t-128 -40.5q-76 0 -114.5 32t-30.5 88zM212 0l558 700h87l-558 -700h-87zM530 76l10 58l190 286h77l-191 -286h113l18 100h73l-18 -100h69l-10 -58h-69l-13 -76h-73l13 76h-189z" />
<glyph unicode="&#xbf;" horiz-adv-x="514" d="M29 -81q0 58 26 102.5t62 72t72 53t59.5 60.5t19.5 80h86q3 -49 -13.5 -86.5t-42.5 -59.5t-57.5 -44.5t-58.5 -42t-45 -52t-18 -73.5q0 -42 28 -63.5t76 -21.5q52 0 93.5 31.5t59.5 96.5h93q-21 -90 -91 -142.5t-167 -52.5q-86 0 -134 37t-48 105zM278 438q0 29 22 49 t50 20q22 0 36 -14.5t14 -36.5q0 -29 -22 -49t-50 -20q-22 0 -36 14.5t-14 36.5z" />
<glyph unicode="&#xc0;" horiz-adv-x="626" d="M10 0l373 700h90l143 -700h-89l-37 198h-289l-101 -198h-90zM235 264h242l-44 237l-20 114l-57 -114zM306 891h111l114 -138h-76z" />
<glyph unicode="&#xc1;" horiz-adv-x="626" d="M10 0l373 700h90l143 -700h-89l-37 198h-289l-101 -198h-90zM235 264h242l-44 237l-20 114l-57 -114zM342 753l152 138h121l-189 -138h-84z" />
<glyph unicode="&#xc2;" horiz-adv-x="626" d="M10 0l373 700h90l143 -700h-89l-37 198h-289l-101 -198h-90zM235 264h242l-44 237l-20 114l-57 -114zM252 753l171 138h75l123 -138h-78l-93 70l-116 -70h-82z" />
<glyph unicode="&#xc3;" horiz-adv-x="626" d="M10 0l373 700h90l143 -700h-89l-37 198h-289l-101 -198h-90zM235 264h242l-44 237l-20 114l-57 -114zM270 796q53 89 123 89q29 0 74 -23.5t58 -23.5q34 0 62 43l41 -23q-52 -89 -121 -89q-28 0 -73.5 23.5t-59.5 23.5q-32 0 -63 -43z" />
<glyph unicode="&#xc4;" horiz-adv-x="626" d="M10 0l373 700h90l143 -700h-89l-37 198h-289l-101 -198h-90zM235 264h242l-44 237l-20 114l-57 -114zM286 818q0 24 20.5 43t45.5 19q20 0 33.5 -14t13.5 -34q0 -24 -20.5 -43t-45.5 -19q-20 0 -33.5 14t-13.5 34zM498 818q0 24 20.5 43t45.5 19q20 0 33.5 -14t13.5 -34 q0 -24 -20.5 -43t-45.5 -19q-20 0 -33.5 14t-13.5 34z" />
<glyph unicode="&#xc5;" horiz-adv-x="626" d="M10 0l373 700h90l143 -700h-89l-37 198h-289l-101 -198h-90zM235 264h242l-44 237l-20 114l-57 -114zM338 805q0 49 37 79.5t89 30.5q41 0 67 -21.5t26 -58.5q0 -49 -37 -79.5t-89 -30.5q-41 0 -67 21.5t-26 58.5zM398 810q0 -39 41 -39q26 0 42 16t16 43q0 39 -41 39 q-26 0 -42 -16t-16 -43z" />
<glyph unicode="&#xc6;" horiz-adv-x="935" d="M10 0l593 700h405l-11 -67h-319l-41 -231h299l-12 -67h-299l-47 -268h319l-12 -67h-405l35 198h-241l-164 -198h-100zM329 264h197l54 305l-92 -114z" />
<glyph unicode="&#xc7;" horiz-adv-x="668" d="M102 267q0 195 106 321.5t267 126.5q104 0 167.5 -59.5t60.5 -175.5h-99q3 85 -36 126.5t-105 41.5q-52 0 -99 -23.5t-85 -69t-61 -120t-23 -168.5q0 -108 43.5 -161.5t119.5 -53.5q66 0 119.5 41.5t80.5 126.5h99q-37 -114 -119 -173.5t-185 -61.5l-48 -52 q43 4 70.5 -14t27.5 -55q0 -50 -42 -81t-94 -31q-41 0 -68 14l9 51q25 -13 62 -13q25 0 46 13.5t21 35.5q0 18 -15 28t-36 10q-26 0 -45 -6l-13 31l68 73q-95 16 -144.5 89t-49.5 189z" />
<glyph unicode="&#xc8;" horiz-adv-x="545" d="M90 0l123 700h405l-11 -67h-319l-41 -231h299l-12 -67h-299l-47 -268h319l-12 -67h-405zM275 891h111l114 -138h-76z" />
<glyph unicode="&#xc9;" horiz-adv-x="545" d="M90 0l123 700h405l-11 -67h-319l-41 -231h299l-12 -67h-299l-47 -268h319l-12 -67h-405zM321 753l152 138h121l-189 -138h-84z" />
<glyph unicode="&#xca;" horiz-adv-x="545" d="M90 0l123 700h405l-11 -67h-319l-41 -231h299l-12 -67h-299l-47 -268h319l-12 -67h-405zM241 753l171 138h75l123 -138h-78l-93 70l-116 -70h-82z" />
<glyph unicode="&#xcb;" horiz-adv-x="545" d="M90 0l123 700h405l-11 -67h-319l-41 -231h299l-12 -67h-299l-47 -268h319l-12 -67h-405zM275 818q0 24 20.5 43t45.5 19q20 0 33.5 -14t13.5 -34q0 -24 -20.5 -43t-45.5 -19q-20 0 -33.5 14t-13.5 34zM487 818q0 24 20.5 43t45.5 19q20 0 33.5 -14t13.5 -34 q0 -24 -20.5 -43t-45.5 -19q-20 0 -33.5 14t-13.5 34z" />
<glyph unicode="&#xcc;" horiz-adv-x="266" d="M90 0l123 700h86l-123 -700h-86zM126 891h111l114 -138h-76z" />
<glyph unicode="&#xcd;" horiz-adv-x="266" d="M90 0l123 700h86l-123 -700h-86zM182 753l152 138h121l-189 -138h-84z" />
<glyph unicode="&#xce;" horiz-adv-x="266" d="M82 753l171 138h75l123 -138h-78l-93 70l-116 -70h-82zM90 0l123 700h86l-123 -700h-86z" />
<glyph unicode="&#xcf;" horiz-adv-x="266" d="M90 0l123 700h86l-123 -700h-86zM151 818q0 24 20.5 43t45.5 19q20 0 33.5 -14t13.5 -34q0 -24 -20.5 -43t-45.5 -19q-20 0 -33.5 14t-13.5 34zM293 818q0 24 20.5 43t45.5 19q20 0 33.5 -14t13.5 -34q0 -24 -20.5 -43t-45.5 -19q-20 0 -33.5 14t-13.5 34z" />
<glyph unicode="&#xd0;" horiz-adv-x="703" d="M35 314l12 67h110l56 319h204q143 0 224 -75.5t81 -208.5q0 -189 -118.5 -302.5t-309.5 -113.5h-204l55 314h-110zM188 67h118q143 0 233 85t90 262q0 113 -60.5 166t-162.5 53h-118l-45 -252h150l-12 -67h-149z" />
<glyph unicode="&#xd1;" horiz-adv-x="713" d="M90 0l123 700h98l256 -586l17 110l84 476h78l-123 -700h-98l-256 586l-18 -110l-83 -476h-78zM323 796q53 89 123 89q28 0 73 -23.5t59 -23.5q34 0 62 43l41 -23q-52 -89 -121 -89q-28 0 -73.5 23.5t-59.5 23.5q-32 0 -63 -43z" />
<glyph unicode="&#xd2;" horiz-adv-x="740" d="M103 276q0 192 111 315.5t282 123.5q124 0 194 -79t70 -212q0 -192 -111 -315.5t-282 -123.5q-124 0 -194 79t-70 212zM196 276q0 -111 50.5 -167.5t132.5 -56.5q121 0 204.5 96.5t83.5 275.5q0 112 -50 168t-133 56q-120 0 -204 -96.5t-84 -275.5zM373 891h111l114 -138 h-76z" />
<glyph unicode="&#xd3;" horiz-adv-x="740" d="M103 276q0 192 111 315.5t282 123.5q124 0 194 -79t70 -212q0 -192 -111 -315.5t-282 -123.5q-124 0 -194 79t-70 212zM196 276q0 -111 50.5 -167.5t132.5 -56.5q121 0 204.5 96.5t83.5 275.5q0 112 -50 168t-133 56q-120 0 -204 -96.5t-84 -275.5zM409 753l152 138h121 l-189 -138h-84z" />
<glyph unicode="&#xd4;" horiz-adv-x="740" d="M103 276q0 192 111 315.5t282 123.5q124 0 194 -79t70 -212q0 -192 -111 -315.5t-282 -123.5q-124 0 -194 79t-70 212zM196 276q0 -111 50.5 -167.5t132.5 -56.5q121 0 204.5 96.5t83.5 275.5q0 112 -50 168t-133 56q-120 0 -204 -96.5t-84 -275.5zM319 753l171 138h75 l123 -138h-78l-93 70l-116 -70h-82z" />
<glyph unicode="&#xd5;" horiz-adv-x="740" d="M103 276q0 192 111 315.5t282 123.5q124 0 194 -79t70 -212q0 -192 -111 -315.5t-282 -123.5q-124 0 -194 79t-70 212zM196 276q0 -111 50.5 -167.5t132.5 -56.5q121 0 204.5 96.5t83.5 275.5q0 112 -50 168t-133 56q-120 0 -204 -96.5t-84 -275.5zM337 796q53 89 123 89 q28 0 73 -23.5t59 -23.5q34 0 62 43l41 -23q-52 -89 -121 -89q-28 0 -73.5 23.5t-59.5 23.5q-32 0 -63 -43z" />
<glyph unicode="&#xd6;" horiz-adv-x="740" d="M103 276q0 192 111 315.5t282 123.5q124 0 194 -79t70 -212q0 -192 -111 -315.5t-282 -123.5q-124 0 -194 79t-70 212zM196 276q0 -111 50.5 -167.5t132.5 -56.5q121 0 204.5 96.5t83.5 275.5q0 112 -50 168t-133 56q-120 0 -204 -96.5t-84 -275.5zM353 818q0 24 20.5 43 t45.5 19q20 0 33.5 -14t13.5 -34q0 -24 -20.5 -43t-45.5 -19q-20 0 -33.5 14t-13.5 34zM565 818q0 24 20.5 43t45.5 19q20 0 33.5 -14t13.5 -34q0 -24 -20.5 -43t-45.5 -19q-20 0 -33.5 14t-13.5 34z" />
<glyph unicode="&#xd7;" horiz-adv-x="512" d="M108 207l190 161l-129 161l51 43l129 -160l190 161l41 -49l-191 -162l130 -162l-51 -43l-130 162l-189 -161z" />
<glyph unicode="&#xd8;" horiz-adv-x="740" d="M68 -90l108 150q-73 79 -73 216q0 192 111 315.5t282 123.5q76 0 131 -30l76 105h92l-108 -150q73 -79 73 -216q0 -192 -111 -315.5t-282 -123.5q-75 0 -131 30l-76 -105h-92zM196 276q0 -88 33 -143l353 489q-40 26 -98 26q-120 0 -204 -96.5t-84 -275.5zM281 78 q40 -26 98 -26q121 0 204.5 96.5t83.5 275.5q0 88 -33 143z" />
<glyph unicode="&#xd9;" horiz-adv-x="704" d="M120 227l83 473h86l-79 -453q-17 -96 15.5 -145.5t130.5 -49.5q97 0 151.5 47t68.5 128l83 473h78l-79 -453q-22 -122 -106 -192t-208 -70q-125 0 -184.5 64t-39.5 178zM360 891h111l114 -138h-76z" />
<glyph unicode="&#xda;" horiz-adv-x="704" d="M120 227l83 473h86l-79 -453q-17 -96 15.5 -145.5t130.5 -49.5q97 0 151.5 47t68.5 128l83 473h78l-79 -453q-22 -122 -106 -192t-208 -70q-125 0 -184.5 64t-39.5 178zM376 753l152 138h121l-189 -138h-84z" />
<glyph unicode="&#xdb;" horiz-adv-x="704" d="M120 227l83 473h86l-79 -453q-17 -96 15.5 -145.5t130.5 -49.5q97 0 151.5 47t68.5 128l83 473h78l-79 -453q-22 -122 -106 -192t-208 -70q-125 0 -184.5 64t-39.5 178zM296 753l171 138h75l123 -138h-78l-93 70l-116 -70h-82z" />
<glyph unicode="&#xdc;" horiz-adv-x="704" d="M120 227l83 473h86l-79 -453q-17 -96 15.5 -145.5t130.5 -49.5q97 0 151.5 47t68.5 128l83 473h78l-79 -453q-22 -122 -106 -192t-208 -70q-125 0 -184.5 64t-39.5 178zM330 818q0 24 20.5 43t45.5 19q20 0 33.5 -14t13.5 -34q0 -24 -20.5 -43t-45.5 -19q-20 0 -33.5 14 t-13.5 34zM542 818q0 24 20.5 43t45.5 19q20 0 33.5 -14t13.5 -34q0 -24 -20.5 -43t-45.5 -19q-20 0 -33.5 14t-13.5 34z" />
<glyph unicode="&#xdd;" horiz-adv-x="590" d="M153 700h89l118 -373l234 373h89l-294 -445l-45 -255h-86l45 255zM324 753l152 138h121l-189 -138h-84z" />
<glyph unicode="&#xde;" horiz-adv-x="588" d="M90 0l123 700h86l-21 -120h126q90 0 151 -47.5t61 -136.5q0 -62 -25 -112.5t-67 -81t-92.5 -46.5t-104.5 -16h-126l-25 -140h-86zM212 207h126q84 0 135.5 47.5t51.5 136.5q0 61 -35 91.5t-98 30.5h-126z" />
<glyph unicode="&#xdf;" horiz-adv-x="618" d="M80 0l89 505q21 120 102 187t178 67q72 0 119 -28.5t47 -88.5q0 -37 -16 -68t-39.5 -52.5t-46.5 -40t-39 -38.5t-16 -41q0 -26 25 -50t55 -42t55 -52.5t25 -78.5q0 -82 -61.5 -138t-147.5 -56q-169 0 -152 159h87q-1 -51 15.5 -75.5t65.5 -24.5q42 0 77 31t35 83 q0 31 -16.5 55.5t-40 41.5l-47 34t-40 41.5t-16.5 56.5q0 31 16 58.5t39.5 48.5t46.5 40.5t39 43t16 47.5q0 35 -24 55t-72 20q-64 0 -118 -48.5t-71 -146.5l-89 -505h-80z" />
<glyph unicode="&#xe0;" horiz-adv-x="579" d="M88 192q0 86 26.5 154t69.5 106.5t92 58.5t99 20q85 0 127 -61l8 46h80l-91 -516h-80l14 81l-4 -24q-83 -72 -181 -72q-69 0 -114.5 52t-45.5 155zM175 202q0 -76 31 -113t77 -37q88 0 156 61l52 295q-44 56 -125 56q-72 0 -131.5 -65.5t-59.5 -196.5zM269 729h101 l81 -148h-66z" />
<glyph unicode="&#xe1;" horiz-adv-x="579" d="M88 192q0 86 26.5 154t69.5 106.5t92 58.5t99 20q85 0 127 -61l8 46h80l-91 -516h-80l14 81l-4 -24q-83 -72 -181 -72q-69 0 -114.5 52t-45.5 155zM175 202q0 -76 31 -113t77 -37q88 0 156 61l52 295q-44 56 -125 56q-72 0 -131.5 -65.5t-59.5 -196.5zM302 581l125 148 h111l-162 -148h-74z" />
<glyph unicode="&#xe2;" horiz-adv-x="579" d="M88 192q0 86 26.5 154t69.5 106.5t92 58.5t99 20q85 0 127 -61l8 46h80l-91 -516h-80l14 81l-4 -24q-83 -72 -181 -72q-69 0 -114.5 52t-45.5 155zM175 202q0 -76 31 -113t77 -37q88 0 156 61l52 295q-44 56 -125 56q-72 0 -131.5 -65.5t-59.5 -196.5zM242 581l134 148 h94l80 -148h-68l-68 90l-100 -90h-72z" />
<glyph unicode="&#xe3;" horiz-adv-x="579" d="M88 192q0 86 26.5 154t69.5 106.5t92 58.5t99 20q85 0 127 -61l8 46h80l-91 -516h-80l14 81l-4 -24q-83 -72 -181 -72q-69 0 -114.5 52t-45.5 155zM175 202q0 -76 31 -113t77 -37q88 0 156 61l52 295q-44 56 -125 56q-72 0 -131.5 -65.5t-59.5 -196.5zM240 618 q26 43 60.5 66t62.5 23q29 0 64 -23.5t49 -23.5q31 0 61 43l41 -23q-25 -43 -59.5 -66t-62.5 -23t-64.5 23.5t-50.5 23.5q-29 0 -60 -43z" />
<glyph unicode="&#xe4;" horiz-adv-x="579" d="M88 192q0 86 26.5 154t69.5 106.5t92 58.5t99 20q85 0 127 -61l8 46h80l-91 -516h-80l14 81l-4 -24q-83 -72 -181 -72q-69 0 -114.5 52t-45.5 155zM175 202q0 -76 31 -113t77 -37q88 0 156 61l52 295q-44 56 -125 56q-72 0 -131.5 -65.5t-59.5 -196.5zM263 653 q0 24 20.5 43t45.5 19q20 0 33.5 -14t13.5 -34q0 -24 -20.5 -43t-45.5 -19q-20 0 -33.5 14t-13.5 34zM445 653q0 24 20.5 43t45.5 19q20 0 33.5 -14t13.5 -34q0 -24 -20.5 -43t-45.5 -19q-20 0 -33.5 14t-13.5 34z" />
<glyph unicode="&#xe5;" horiz-adv-x="579" d="M88 192q0 86 26.5 154t69.5 106.5t92 58.5t99 20q85 0 127 -61l8 46h80l-91 -516h-80l14 81l-4 -24q-83 -72 -181 -72q-69 0 -114.5 52t-45.5 155zM175 202q0 -76 31 -113t77 -37q88 0 156 61l52 295q-44 56 -125 56q-72 0 -131.5 -65.5t-59.5 -196.5zM300 640 q0 49 37 79.5t89 30.5q41 0 67 -21.5t26 -58.5q0 -49 -37 -79.5t-89 -30.5q-41 0 -67 21.5t-26 58.5zM360 645q0 -39 41 -39q26 0 42 16t16 43q0 39 -41 39q-26 0 -42 -16t-16 -43z" />
<glyph unicode="&#xe6;" horiz-adv-x="879" d="M69 99q0 33 14.5 64t44.5 59.5t87 46t133 17.5q35 0 88 -5l11 64q22 127 -83 127q-117 0 -145 -126h-87q16 87 82.5 136t160.5 49q120 0 149 -79q76 79 179 79q112 0 156 -74.5t14 -203.5h-360q-3 -29 -3 -60q0 -149 107 -149q99 0 137 96h89q-20 -65 -86.5 -110 t-150.5 -45q-133 0 -168 108q-47 -48 -108.5 -78t-125.5 -30q-62 0 -98.5 31t-36.5 83zM155 117q0 -67 85 -67q47 0 97.5 28.5t88.5 66.5q-4 33 1 82q-40 4 -82 4q-190 0 -190 -114zM523 309h268q14 79 -12.5 121t-86.5 42q-57 0 -103 -42t-66 -121z" />
<glyph unicode="&#xe7;" horiz-adv-x="532" d="M88 192q0 147 76 243t207 96q88 0 138.5 -48t45.5 -127h-89q1 116 -106 116q-79 0 -132.5 -73t-53.5 -207q0 -148 111 -148q107 0 146 116h89q-21 -75 -83.5 -122.5t-145.5 -52.5l-49 -52q43 4 70.5 -14t27.5 -55q0 -50 -42 -81t-94 -31q-41 0 -68 14l9 51q25 -13 62 -13 q25 0 46 13.5t21 35.5q0 18 -15 28t-36 10q-26 0 -45 -6l-13 31l67 72q-73 12 -108.5 65.5t-35.5 138.5z" />
<glyph unicode="&#xe8;" horiz-adv-x="543" d="M88 192q0 146 79 242.5t200 96.5q112 0 156 -74.5t14 -203.5h-360q-3 -29 -3 -60q0 -149 107 -149q99 0 137 96h89q-20 -65 -86.5 -110t-150.5 -45q-91 0 -136.5 55.5t-45.5 151.5zM187 309h268q14 79 -12.5 121t-86.5 42q-57 0 -103 -42t-66 -121zM271 729h101l81 -148 h-66z" />
<glyph unicode="&#xe9;" horiz-adv-x="543" d="M88 192q0 146 79 242.5t200 96.5q112 0 156 -74.5t14 -203.5h-360q-3 -29 -3 -60q0 -149 107 -149q99 0 137 96h89q-20 -65 -86.5 -110t-150.5 -45q-91 0 -136.5 55.5t-45.5 151.5zM187 309h268q14 79 -12.5 121t-86.5 42q-57 0 -103 -42t-66 -121zM294 581l125 148h111 l-162 -148h-74z" />
<glyph unicode="&#xea;" horiz-adv-x="543" d="M88 192q0 146 79 242.5t200 96.5q112 0 156 -74.5t14 -203.5h-360q-3 -29 -3 -60q0 -149 107 -149q99 0 137 96h89q-20 -65 -86.5 -110t-150.5 -45q-91 0 -136.5 55.5t-45.5 151.5zM187 309h268q14 79 -12.5 121t-86.5 42q-57 0 -103 -42t-66 -121zM224 581l134 148h94 l80 -148h-68l-68 90l-100 -90h-72z" />
<glyph unicode="&#xeb;" horiz-adv-x="543" d="M88 192q0 146 79 242.5t200 96.5q112 0 156 -74.5t14 -203.5h-360q-3 -29 -3 -60q0 -149 107 -149q99 0 137 96h89q-20 -65 -86.5 -110t-150.5 -45q-91 0 -136.5 55.5t-45.5 151.5zM187 309h268q14 79 -12.5 121t-86.5 42q-57 0 -103 -42t-66 -121zM245 653q0 24 20.5 43 t45.5 19q20 0 33.5 -14t13.5 -34q0 -24 -20.5 -43t-45.5 -19q-20 0 -33.5 14t-13.5 34zM427 653q0 24 20.5 43t45.5 19q20 0 33.5 -14t13.5 -34q0 -24 -20.5 -43t-45.5 -19q-20 0 -33.5 14t-13.5 34z" />
<glyph unicode="&#xec;" horiz-adv-x="240" d="M80 0l91 516h80l-91 -516h-80zM115 729h101l81 -148h-66z" />
<glyph unicode="&#xed;" horiz-adv-x="240" d="M80 0l91 516h80l-91 -516h-80zM148 581l125 148h111l-162 -148h-74z" />
<glyph unicode="&#xee;" horiz-adv-x="240" d="M68 581l134 148h94l80 -148h-68l-68 90l-100 -90h-72zM80 0l91 516h80l-91 -516h-80z" />
<glyph unicode="&#xef;" horiz-adv-x="240" d="M80 0l91 516h80l-91 -516h-80zM109 653q0 24 20.5 43t45.5 19q20 0 33.5 -14t13.5 -34q0 -24 -20.5 -43t-45.5 -19q-20 0 -33.5 14t-13.5 34zM251 653q0 24 20.5 43t45.5 19q20 0 33.5 -14t13.5 -34q0 -24 -20.5 -43t-45.5 -19q-20 0 -33.5 14t-13.5 34z" />
<glyph unicode="&#xf0;" horiz-adv-x="577" d="M87 194q0 129 80 223t207 94q57 0 100 -32q-24 72 -76 136l-142 -52l-25 49l128 47q-50 50 -100 85h110q41 -31 65 -57l128 47l26 -49l-115 -42q110 -137 110 -302q0 -150 -79.5 -253t-211.5 -103q-96 0 -150.5 56.5t-54.5 152.5zM174 199q0 -66 30.5 -110.5t97.5 -44.5 q87 0 142 73t55 214q0 23 -4 65q-46 57 -127 57q-80 0 -137 -71t-57 -183z" />
<glyph unicode="&#xf1;" horiz-adv-x="586" d="M80 0l91 516h80l-12 -67q42 36 94.5 59t100.5 23q73 0 112 -42t24 -127l-64 -362h-80l60 342q22 122 -87 122q-41 0 -89 -21t-81 -50l-69 -393h-80zM229 618q26 43 60.5 66t62.5 23t64 -23.5t49 -23.5q31 0 61 43l41 -23q-25 -43 -59.5 -66t-62.5 -23t-64.5 23.5 t-50.5 23.5q-29 0 -60 -43z" />
<glyph unicode="&#xf2;" horiz-adv-x="582" d="M89 202q0 142 81.5 235.5t214.5 93.5q96 0 147.5 -59t51.5 -158q0 -142 -81.5 -235.5t-214.5 -93.5q-96 0 -147.5 59t-51.5 158zM175 201q0 -78 33.5 -117.5t90.5 -39.5q87 0 143 70.5t56 200.5q0 78 -33.5 117.5t-90.5 39.5q-87 0 -143 -70.5t-56 -200.5zM296 729h101 l81 -148h-66z" />
<glyph unicode="&#xf3;" horiz-adv-x="582" d="M89 202q0 142 81.5 235.5t214.5 93.5q96 0 147.5 -59t51.5 -158q0 -142 -81.5 -235.5t-214.5 -93.5q-96 0 -147.5 59t-51.5 158zM175 201q0 -78 33.5 -117.5t90.5 -39.5q87 0 143 70.5t56 200.5q0 78 -33.5 117.5t-90.5 39.5q-87 0 -143 -70.5t-56 -200.5zM309 581 l125 148h111l-162 -148h-74z" />
<glyph unicode="&#xf4;" horiz-adv-x="582" d="M89 202q0 142 81.5 235.5t214.5 93.5q96 0 147.5 -59t51.5 -158q0 -142 -81.5 -235.5t-214.5 -93.5q-96 0 -147.5 59t-51.5 158zM175 201q0 -78 33.5 -117.5t90.5 -39.5q87 0 143 70.5t56 200.5q0 78 -33.5 117.5t-90.5 39.5q-87 0 -143 -70.5t-56 -200.5zM239 581 l134 148h94l80 -148h-68l-68 90l-100 -90h-72z" />
<glyph unicode="&#xf5;" horiz-adv-x="582" d="M89 202q0 142 81.5 235.5t214.5 93.5q96 0 147.5 -59t51.5 -158q0 -142 -81.5 -235.5t-214.5 -93.5q-96 0 -147.5 59t-51.5 158zM175 201q0 -78 33.5 -117.5t90.5 -39.5q87 0 143 70.5t56 200.5q0 78 -33.5 117.5t-90.5 39.5q-87 0 -143 -70.5t-56 -200.5zM237 618 q26 43 60.5 66t62.5 23t64 -23.5t49 -23.5q31 0 61 43l41 -23q-25 -43 -59.5 -66t-62.5 -23t-64.5 23.5t-50.5 23.5q-29 0 -60 -43z" />
<glyph unicode="&#xf6;" horiz-adv-x="582" d="M89 202q0 142 81.5 235.5t214.5 93.5q96 0 147.5 -59t51.5 -158q0 -142 -81.5 -235.5t-214.5 -93.5q-96 0 -147.5 59t-51.5 158zM175 201q0 -78 33.5 -117.5t90.5 -39.5q87 0 143 70.5t56 200.5q0 78 -33.5 117.5t-90.5 39.5q-87 0 -143 -70.5t-56 -200.5zM260 653 q0 24 20.5 43t45.5 19q20 0 33.5 -14t13.5 -34q0 -24 -20.5 -43t-45.5 -19q-20 0 -33.5 14t-13.5 34zM442 653q0 24 20.5 43t45.5 19q20 0 33.5 -14t13.5 -34q0 -24 -20.5 -43t-45.5 -19q-20 0 -33.5 14t-13.5 34z" />
<glyph unicode="&#xf7;" horiz-adv-x="560" d="M109 332l11 67h460l-11 -67h-460zM254 170q0 24 21 43t46 19q20 0 33.5 -14t13.5 -34q0 -24 -20.5 -43t-45.5 -19q-20 0 -34 14t-14 34zM321 547q0 24 20.5 43t45.5 19q20 0 33.5 -14t13.5 -34q0 -24 -20.5 -43t-45.5 -19q-20 0 -33.5 14t-13.5 34z" />
<glyph unicode="&#xf8;" horiz-adv-x="582" d="M40 -80l97 128q-48 57 -48 154q0 142 81.5 235.5t214.5 93.5q58 0 101 -23l67 88h80l-97 -128q48 -57 48 -154q0 -142 -81.5 -235.5t-214.5 -93.5q-58 0 -101 23l-67 -88h-80zM175 201q0 -50 14 -84l255 335q-31 20 -70 20q-87 0 -143 -70.5t-56 -200.5zM229 64 q31 -20 70 -20q87 0 143 70.5t56 200.5q0 50 -14 84z" />
<glyph unicode="&#xf9;" horiz-adv-x="582" d="M107 154l64 362h80l-60 -342q-22 -122 85 -122q41 0 88 21t80 50l69 393h80l-91 -516h-80l12 67q-42 -36 -93.5 -59t-99.5 -23q-73 0 -111 41.5t-23 127.5zM286 729h101l81 -148h-66z" />
<glyph unicode="&#xfa;" horiz-adv-x="582" d="M107 154l64 362h80l-60 -342q-22 -122 85 -122q41 0 88 21t80 50l69 393h80l-91 -516h-80l12 67q-42 -36 -93.5 -59t-99.5 -23q-73 0 -111 41.5t-23 127.5zM319 581l125 148h111l-162 -148h-74z" />
<glyph unicode="&#xfb;" horiz-adv-x="582" d="M107 154l64 362h80l-60 -342q-22 -122 85 -122q41 0 88 21t80 50l69 393h80l-91 -516h-80l12 67q-42 -36 -93.5 -59t-99.5 -23q-73 0 -111 41.5t-23 127.5zM239 581l134 148h94l80 -148h-68l-68 90l-100 -90h-72z" />
<glyph unicode="&#xfc;" horiz-adv-x="582" d="M107 154l64 362h80l-60 -342q-22 -122 85 -122q41 0 88 21t80 50l69 393h80l-91 -516h-80l12 67q-42 -36 -93.5 -59t-99.5 -23q-73 0 -111 41.5t-23 127.5zM260 653q0 24 20.5 43t45.5 19q20 0 33.5 -14t13.5 -34q0 -24 -20.5 -43t-45.5 -19q-20 0 -33.5 14t-13.5 34z M442 653q0 24 20.5 43t45.5 19q20 0 33.5 -14t13.5 -34q0 -24 -20.5 -43t-45.5 -19q-20 0 -33.5 14t-13.5 34z" />
<glyph unicode="&#xfd;" horiz-adv-x="505" d="M96 -208l124 214l-109 510h87l58 -302l19 -114l58 114l160 302h83l-402 -724h-78zM280 581l125 148h111l-162 -148h-74z" />
<glyph unicode="&#xfe;" horiz-adv-x="579" d="M43 -208l168 952h80l-168 -952h-80zM168 46l11 62q44 -56 125 -56q72 0 131.5 65.5t59.5 196.5q0 76 -31 113t-77 37q-88 0 -156 -61l10 56q83 72 181 72q69 0 114.5 -52t45.5 -155q0 -86 -26.5 -154t-69.5 -106.5t-92 -58.5t-99 -20q-85 0 -127 61z" />
<glyph unicode="&#xff;" horiz-adv-x="505" d="M96 -208l124 214l-109 510h87l58 -302l19 -114l58 114l160 302h83l-402 -724h-78zM231 653q0 24 20.5 43t45.5 19q20 0 33.5 -14t13.5 -34q0 -24 -20.5 -43t-45.5 -19q-20 0 -33.5 14t-13.5 34zM413 653q0 24 20.5 43t45.5 19q20 0 33.5 -14t13.5 -34q0 -24 -20.5 -43 t-45.5 -19q-20 0 -33.5 14t-13.5 34z" />
<glyph unicode="&#x100;" horiz-adv-x="626" d="M10 0l373 700h90l143 -700h-89l-37 198h-289l-101 -198h-90zM235 264h242l-44 237l-20 114l-57 -114zM287 787l11 63h310l-11 -63h-310z" />
<glyph unicode="&#x101;" horiz-adv-x="579" d="M88 192q0 86 26.5 154t69.5 106.5t92 58.5t99 20q85 0 127 -61l8 46h80l-91 -516h-80l14 81l-4 -24q-83 -72 -181 -72q-69 0 -114.5 52t-45.5 155zM175 202q0 -76 31 -113t77 -37q88 0 156 61l52 295q-44 56 -125 56q-72 0 -131.5 -65.5t-59.5 -196.5zM257 612l11 63h290 l-11 -63h-290z" />
<glyph unicode="&#x102;" horiz-adv-x="626" d="M10 0l373 700h90l143 -700h-89l-37 198h-289l-101 -198h-90zM235 264h242l-44 237l-20 114l-57 -114zM318 891h58q-5 -33 13 -54t58 -21t64 20.5t29 54.5h62q-12 -70 -56.5 -108t-111.5 -38q-66 0 -97 38t-19 108z" />
<glyph unicode="&#x103;" horiz-adv-x="579" d="M88 192q0 86 26.5 154t69.5 106.5t92 58.5t99 20q85 0 127 -61l8 46h80l-91 -516h-80l14 81l-4 -24q-83 -72 -181 -72q-69 0 -114.5 52t-45.5 155zM175 202q0 -76 31 -113t77 -37q88 0 156 61l52 295q-44 56 -125 56q-72 0 -131.5 -65.5t-59.5 -196.5zM291 729h56 q-8 -40 8 -64.5t52 -24.5q71 0 88 89h60q-14 -76 -57 -116t-103 -40t-89 40t-15 116z" />
<glyph unicode="&#x104;" horiz-adv-x="626" d="M10 0l373 700h90l143 -700q-76 -35 -113.5 -70.5t-37.5 -78.5q0 -20 12.5 -31.5t31.5 -11.5q33 0 77 23l-9 -55q-48 -24 -96 -24q-40 0 -63.5 23t-23.5 60q0 94 142 165h-9l-37 198h-289l-101 -198h-90zM235 264h242l-44 237l-20 114l-57 -114z" />
<glyph unicode="&#x105;" horiz-adv-x="579" d="M88 192q0 86 26.5 154t69.5 106.5t92 58.5t99 20q85 0 127 -61l8 46h80l-91 -516q-76 -35 -113.5 -70.5t-37.5 -78.5q0 -20 12.5 -31.5t31.5 -11.5q33 0 77 23l-9 -55q-48 -24 -96 -24q-40 0 -63.5 23t-23.5 60q0 94 142 165l14 81l-4 -24q-83 -72 -181 -72 q-69 0 -114.5 52t-45.5 155zM175 202q0 -76 31 -113t77 -37q88 0 156 61l52 295q-44 56 -125 56q-72 0 -131.5 -65.5t-59.5 -196.5z" />
<glyph unicode="&#x106;" horiz-adv-x="668" d="M102 267q0 195 106 321.5t267 126.5q104 0 167.5 -59.5t60.5 -175.5h-99q3 85 -36 126.5t-105 41.5q-52 0 -99 -23.5t-85 -69t-61 -120t-23 -168.5q0 -108 43.5 -161.5t119.5 -53.5q66 0 119.5 41.5t80.5 126.5h99q-38 -116 -122.5 -175.5t-188.5 -59.5q-118 0 -181 75.5 t-63 206.5zM353 753l152 138h121l-189 -138h-84z" />
<glyph unicode="&#x107;" horiz-adv-x="532" d="M88 192q0 147 76 243t207 96q88 0 138.5 -48t45.5 -127h-89q1 116 -106 116q-79 0 -132.5 -73t-53.5 -207q0 -148 111 -148q107 0 146 116h89q-22 -79 -89.5 -127t-156.5 -48q-94 0 -140 55.5t-46 151.5zM283 581l125 148h111l-162 -148h-74z" />
<glyph unicode="&#x108;" horiz-adv-x="668" d="M102 267q0 195 106 321.5t267 126.5q104 0 167.5 -59.5t60.5 -175.5h-99q3 85 -36 126.5t-105 41.5q-52 0 -99 -23.5t-85 -69t-61 -120t-23 -168.5q0 -108 43.5 -161.5t119.5 -53.5q66 0 119.5 41.5t80.5 126.5h99q-38 -116 -122.5 -175.5t-188.5 -59.5q-118 0 -181 75.5 t-63 206.5zM283 753l171 138h75l123 -138h-78l-93 70l-116 -70h-82z" />
<glyph unicode="&#x109;" horiz-adv-x="532" d="M88 192q0 147 76 243t207 96q88 0 138.5 -48t45.5 -127h-89q1 116 -106 116q-79 0 -132.5 -73t-53.5 -207q0 -148 111 -148q107 0 146 116h89q-22 -79 -89.5 -127t-156.5 -48q-94 0 -140 55.5t-46 151.5zM219 581l134 148h94l80 -148h-68l-68 90l-100 -90h-72z" />
<glyph unicode="&#x10a;" horiz-adv-x="668" d="M102 267q0 195 106 321.5t267 126.5q104 0 167.5 -59.5t60.5 -175.5h-99q3 85 -36 126.5t-105 41.5q-52 0 -99 -23.5t-85 -69t-61 -120t-23 -168.5q0 -108 43.5 -161.5t119.5 -53.5q66 0 119.5 41.5t80.5 126.5h99q-38 -116 -122.5 -175.5t-188.5 -59.5q-118 0 -181 75.5 t-63 206.5zM423 818q0 24 20.5 43t45.5 19q20 0 33.5 -14t13.5 -34q0 -24 -20.5 -43t-45.5 -19q-20 0 -33.5 14t-13.5 34z" />
<glyph unicode="&#x10b;" horiz-adv-x="532" d="M88 192q0 147 76 243t207 96q88 0 138.5 -48t45.5 -127h-89q1 116 -106 116q-79 0 -132.5 -73t-53.5 -207q0 -148 111 -148q107 0 146 116h89q-22 -79 -89.5 -127t-156.5 -48q-94 0 -140 55.5t-46 151.5zM331 653q0 24 20.5 43t45.5 19q20 0 33.5 -14t13.5 -34 q0 -24 -20.5 -43t-45.5 -19q-20 0 -33.5 14t-13.5 34z" />
<glyph unicode="&#x10c;" horiz-adv-x="668" d="M102 267q0 195 106 321.5t267 126.5q104 0 167.5 -59.5t60.5 -175.5h-99q3 85 -36 126.5t-105 41.5q-52 0 -99 -23.5t-85 -69t-61 -120t-23 -168.5q0 -108 43.5 -161.5t119.5 -53.5q66 0 119.5 41.5t80.5 126.5h99q-38 -116 -122.5 -175.5t-188.5 -59.5q-118 0 -181 75.5 t-63 206.5zM307 891h78l92 -70l117 70h82l-171 -138h-75z" />
<glyph unicode="&#x10d;" horiz-adv-x="532" d="M88 192q0 147 76 243t207 96q88 0 138.5 -48t45.5 -127h-89q1 116 -106 116q-79 0 -132.5 -73t-53.5 -207q0 -148 111 -148q107 0 146 116h89q-22 -79 -89.5 -127t-156.5 -48q-94 0 -140 55.5t-46 151.5zM246 729h68l68 -90l100 90h72l-134 -148h-94z" />
<glyph unicode="&#x10e;" horiz-adv-x="703" d="M90 0l123 700h204q143 0 224 -75.5t81 -208.5q0 -189 -118.5 -302.5t-309.5 -113.5h-204zM188 67h118q143 0 233 85t90 262q0 113 -60.5 166t-162.5 53h-118zM274 891h78l92 -70l117 70h82l-171 -138h-75z" />
<glyph unicode="&#x10f;" horiz-adv-x="579" d="M88 192q0 86 26.5 154t69.5 106.5t92 58.5t99 20q85 0 127 -61l48 274h80l-131 -744h-80l13 72l-3 -15q-83 -72 -181 -72q-69 0 -114.5 52t-45.5 155zM175 202q0 -76 31 -113t77 -37q88 0 156 61l52 295q-44 56 -125 56q-72 0 -131.5 -65.5t-59.5 -196.5zM662 583l39 220 h77l-58 -220h-58z" />
<glyph unicode="&#x110;" horiz-adv-x="703" d="M35 314l12 67h110l56 319h204q143 0 224 -75.5t81 -208.5q0 -189 -118.5 -302.5t-309.5 -113.5h-204l55 314h-110zM188 67h118q143 0 233 85t90 262q0 113 -60.5 166t-162.5 53h-118l-45 -252h150l-12 -67h-149z" />
<glyph unicode="&#x111;" horiz-adv-x="579" d="M88 192q0 86 26.5 154t69.5 106.5t92 58.5t99 20q85 0 127 -61l25 142h-130l11 63h130l12 69h80l-12 -69h80l-11 -63h-80l-108 -612h-80l13 72l-3 -15q-83 -72 -181 -72q-69 0 -114.5 52t-45.5 155zM175 202q0 -76 31 -113t77 -37q88 0 156 61l52 295q-44 56 -125 56 q-72 0 -131.5 -65.5t-59.5 -196.5z" />
<glyph unicode="&#x112;" horiz-adv-x="545" d="M90 0l123 700h405l-11 -67h-319l-41 -231h299l-12 -67h-299l-47 -268h319l-12 -67h-405zM276 787l11 63h310l-11 -63h-310z" />
<glyph unicode="&#x113;" horiz-adv-x="543" d="M88 192q0 146 79 242.5t200 96.5q112 0 156 -74.5t14 -203.5h-360q-3 -29 -3 -60q0 -149 107 -149q99 0 137 96h89q-20 -65 -86.5 -110t-150.5 -45q-91 0 -136.5 55.5t-45.5 151.5zM187 309h268q14 79 -12.5 121t-86.5 42q-57 0 -103 -42t-66 -121zM234 612l11 63h290 l-11 -63h-290z" />
<glyph unicode="&#x114;" horiz-adv-x="545" d="M90 0l123 700h405l-11 -67h-319l-41 -231h299l-12 -67h-299l-47 -268h319l-12 -67h-405zM307 891h58q-5 -33 13 -54t58 -21t64 20.5t29 54.5h62q-12 -70 -56.5 -108t-111.5 -38q-66 0 -97 38t-19 108z" />
<glyph unicode="&#x115;" horiz-adv-x="543" d="M88 192q0 146 79 242.5t200 96.5q112 0 156 -74.5t14 -203.5h-360q-3 -29 -3 -60q0 -149 107 -149q99 0 137 96h89q-20 -65 -86.5 -110t-150.5 -45q-91 0 -136.5 55.5t-45.5 151.5zM187 309h268q14 79 -12.5 121t-86.5 42q-57 0 -103 -42t-66 -121zM273 729h56 q-8 -40 8 -64.5t52 -24.5q71 0 88 89h60q-14 -76 -57 -116t-103 -40t-89 40t-15 116z" />
<glyph unicode="&#x116;" horiz-adv-x="545" d="M90 0l123 700h405l-11 -67h-319l-41 -231h299l-12 -67h-299l-47 -268h319l-12 -67h-405zM381 818q0 24 20.5 43t45.5 19q20 0 33.5 -14t13.5 -34q0 -24 -20.5 -43t-45.5 -19q-20 0 -33.5 14t-13.5 34z" />
<glyph unicode="&#x117;" horiz-adv-x="543" d="M88 192q0 146 79 242.5t200 96.5q112 0 156 -74.5t14 -203.5h-360q-3 -29 -3 -60q0 -149 107 -149q99 0 137 96h89q-20 -65 -86.5 -110t-150.5 -45q-91 0 -136.5 55.5t-45.5 151.5zM187 309h268q14 79 -12.5 121t-86.5 42q-57 0 -103 -42t-66 -121zM326 653q0 24 20.5 43 t45.5 19q20 0 33.5 -14t13.5 -34q0 -24 -20.5 -43t-45.5 -19q-20 0 -33.5 14t-13.5 34z" />
<glyph unicode="&#x118;" horiz-adv-x="545" d="M90 0l123 700h405l-11 -67h-319l-41 -231h299l-12 -67h-299l-47 -268h319l-12 -67q-76 -35 -113.5 -70.5t-37.5 -78.5q0 -20 12.5 -31.5t31.5 -11.5q33 0 77 23l-9 -55q-48 -24 -96 -24q-40 0 -63.5 23t-23.5 60q0 94 142 165h-325z" />
<glyph unicode="&#x119;" horiz-adv-x="543" d="M88 192q0 146 79 242.5t200 96.5q112 0 156 -74.5t14 -203.5h-360q-3 -29 -3 -60q0 -149 107 -149q99 0 137 96h89q-11 -34 -33 -62h1q-8 -10 -29.5 -36.5t-30.5 -37.5t-25.5 -33t-24.5 -34.5t-17.5 -30t-13 -30.5t-3.5 -25q0 -20 12.5 -31.5t31.5 -11.5q33 0 77 23 l-9 -55q-48 -24 -96 -24q-40 0 -63.5 23t-23.5 60q0 35 16.5 67t67.5 93q-38 -10 -74 -10q-91 0 -136.5 55.5t-45.5 151.5zM187 309h268q14 79 -12.5 121t-86.5 42q-57 0 -103 -42t-66 -121z" />
<glyph unicode="&#x11a;" horiz-adv-x="545" d="M90 0l123 700h405l-11 -67h-319l-41 -231h299l-12 -67h-299l-47 -268h319l-12 -67h-405zM265 891h78l92 -70l117 70h82l-171 -138h-75z" />
<glyph unicode="&#x11b;" horiz-adv-x="543" d="M88 192q0 146 79 242.5t200 96.5q112 0 156 -74.5t14 -203.5h-360q-3 -29 -3 -60q0 -149 107 -149q99 0 137 96h89q-20 -65 -86.5 -110t-150.5 -45q-91 0 -136.5 55.5t-45.5 151.5zM187 309h268q14 79 -12.5 121t-86.5 42q-57 0 -103 -42t-66 -121zM251 729h68l68 -90 l100 90h72l-134 -148h-94z" />
<glyph unicode="&#x11c;" horiz-adv-x="674" d="M101 261q0 199 106.5 326.5t267.5 127.5q103 0 164.5 -57.5t59.5 -167.5h-99q2 79 -35.5 118.5t-101.5 39.5q-109 0 -188 -98t-79 -278q0 -108 43.5 -164t110.5 -56q104 0 202 85l26 146h-174l12 67h260l-62 -350h-86l12 70q-42 -37 -100.5 -61t-113.5 -24 q-109 0 -167 74t-58 202zM281 753l171 138h75l123 -138h-78l-93 70l-116 -70h-82z" />
<glyph unicode="&#x11d;" horiz-adv-x="573" d="M50 -58h87q-7 -52 21.5 -79t89.5 -27q62 0 109 39t62 123l10 58q-84 -71 -181 -71q-69 0 -114.5 52t-45.5 155q0 86 26.5 154t69.5 106.5t92 58.5t99 20q85 0 127 -61l8 46h80l-90 -508q-20 -114 -90.5 -172.5t-171.5 -58.5t-150.5 45.5t-37.5 119.5zM175 202 q0 -76 31 -113t77 -37q87 0 156 60l55 312l-3 -16q-44 56 -125 56q-72 0 -131.5 -65.5t-59.5 -196.5zM242 581l134 148h94l80 -148h-68l-68 90l-100 -90h-72z" />
<glyph unicode="&#x11e;" horiz-adv-x="674" d="M101 261q0 199 106.5 326.5t267.5 127.5q103 0 164.5 -57.5t59.5 -167.5h-99q2 79 -35.5 118.5t-101.5 39.5q-109 0 -188 -98t-79 -278q0 -108 43.5 -164t110.5 -56q104 0 202 85l26 146h-174l12 67h260l-62 -350h-86l12 70q-42 -37 -100.5 -61t-113.5 -24 q-109 0 -167 74t-58 202zM347 891h58q-5 -33 13 -54t58 -21t64 20.5t29 54.5h62q-12 -70 -56.5 -108t-111.5 -38q-66 0 -97 38t-19 108z" />
<glyph unicode="&#x11f;" horiz-adv-x="573" d="M50 -58h87q-7 -52 21.5 -79t89.5 -27q62 0 109 39t62 123l10 58q-84 -71 -181 -71q-69 0 -114.5 52t-45.5 155q0 86 26.5 154t69.5 106.5t92 58.5t99 20q85 0 127 -61l8 46h80l-90 -508q-20 -114 -90.5 -172.5t-171.5 -58.5t-150.5 45.5t-37.5 119.5zM175 202 q0 -76 31 -113t77 -37q87 0 156 60l55 312l-3 -16q-44 56 -125 56q-72 0 -131.5 -65.5t-59.5 -196.5zM291 729h56q-8 -40 8 -64.5t52 -24.5q71 0 88 89h60q-14 -76 -57 -116t-103 -40t-89 40t-15 116z" />
<glyph unicode="&#x120;" horiz-adv-x="674" d="M101 261q0 199 106.5 326.5t267.5 127.5q103 0 164.5 -57.5t59.5 -167.5h-99q2 79 -35.5 118.5t-101.5 39.5q-109 0 -188 -98t-79 -278q0 -108 43.5 -164t110.5 -56q104 0 202 85l26 146h-174l12 67h260l-62 -350h-86l12 70q-42 -37 -100.5 -61t-113.5 -24 q-109 0 -167 74t-58 202zM421 818q0 24 20.5 43t45.5 19q20 0 33.5 -14t13.5 -34q0 -24 -20.5 -43t-45.5 -19q-20 0 -33.5 14t-13.5 34z" />
<glyph unicode="&#x121;" horiz-adv-x="573" d="M50 -58h87q-7 -52 21.5 -79t89.5 -27q62 0 109 39t62 123l10 58q-84 -71 -181 -71q-69 0 -114.5 52t-45.5 155q0 86 26.5 154t69.5 106.5t92 58.5t99 20q85 0 127 -61l8 46h80l-90 -508q-20 -114 -90.5 -172.5t-171.5 -58.5t-150.5 45.5t-37.5 119.5zM175 202 q0 -76 31 -113t77 -37q87 0 156 60l55 312l-3 -16q-44 56 -125 56q-72 0 -131.5 -65.5t-59.5 -196.5zM326 653q0 24 20.5 43t45.5 19q20 0 33.5 -14t13.5 -34q0 -24 -20.5 -43t-45.5 -19q-20 0 -33.5 14t-13.5 34z" />
<glyph unicode="&#x122;" horiz-adv-x="674" d="M101 261q0 199 106.5 326.5t267.5 127.5q103 0 164.5 -57.5t59.5 -167.5h-99q2 79 -35.5 118.5t-101.5 39.5q-109 0 -188 -98t-79 -278q0 -108 43.5 -164t110.5 -56q104 0 202 85l26 146h-174l12 67h260l-62 -350h-86l12 70q-42 -37 -100.5 -61t-113.5 -24 q-109 0 -167 74t-58 202zM249 -248l52 180h79l-71 -180h-60z" />
<glyph unicode="&#x123;" horiz-adv-x="573" d="M50 -58h87q-7 -52 21.5 -79t89.5 -27q62 0 109 39t62 123l10 58q-84 -71 -181 -71q-69 0 -114.5 52t-45.5 155q0 86 26.5 154t69.5 106.5t92 58.5t99 20q85 0 127 -61l8 46h80l-90 -508q-20 -114 -90.5 -172.5t-171.5 -58.5t-150.5 45.5t-37.5 119.5zM175 202 q0 -76 31 -113t77 -37q87 0 156 60l55 312l-3 -16q-44 56 -125 56q-72 0 -131.5 -65.5t-59.5 -196.5zM327 585l71 180h60l-52 -180h-79z" />
<glyph unicode="&#x124;" horiz-adv-x="723" d="M90 0l123 700h86l-52 -298h371l52 298h86l-123 -700h-86l59 335h-371l-59 -335h-86zM310 753l171 138h75l123 -138h-78l-93 70l-116 -70h-82z" />
<glyph unicode="&#x125;" horiz-adv-x="586" d="M69 783l171 138h75l123 -138h-78l-93 70l-116 -70h-82zM80 0l131 744h80l-52 -295q42 36 94.5 59t100.5 23q73 0 112 -42t24 -127l-64 -362h-80l60 342q22 122 -87 122q-41 0 -89 -21t-81 -50l-69 -393h-80z" />
<glyph unicode="&#x126;" horiz-adv-x="723" d="M90 0l92 524h-80l12 67h80l19 109h86l-19 -109h371l19 109h86l-19 -109h80l-12 -67h-80l-92 -524h-86l59 335h-371l-59 -335h-86zM247 402h371l21 122h-371z" />
<glyph unicode="&#x127;" horiz-adv-x="586" d="M80 0l108 612h-80l11 63h80l12 69h80l-12 -69h130l-11 -63h-130l-29 -163q42 36 94.5 59t100.5 23q73 0 112 -42t24 -127l-64 -362h-80l60 342q22 122 -87 122q-41 0 -89 -21t-81 -50l-69 -393h-80z" />
<glyph unicode="&#x128;" horiz-adv-x="266" d="M90 0l123 700h86l-123 -700h-86zM100 796q53 89 123 89q28 0 73.5 -23.5t58.5 -23.5q34 0 62 43l41 -23q-52 -89 -121 -89q-28 0 -73.5 23.5t-59.5 23.5q-32 0 -63 -43z" />
<glyph unicode="&#x129;" horiz-adv-x="240" d="M66 618q26 43 60.5 66t62.5 23q29 0 64 -23.5t49 -23.5q31 0 61 43l41 -23q-25 -43 -59.5 -66t-62.5 -23t-64.5 23.5t-50.5 23.5q-29 0 -60 -43zM80 0l91 516h80l-91 -516h-80z" />
<glyph unicode="&#x12a;" horiz-adv-x="266" d="M90 0l123 700h86l-123 -700h-86zM157 787l11 63h230l-11 -63h-230z" />
<glyph unicode="&#x12b;" horiz-adv-x="240" d="M80 0l91 516h80l-91 -516h-80zM123 612l11 63h210l-11 -63h-210z" />
<glyph unicode="&#x12c;" horiz-adv-x="266" d="M90 0l123 700h86l-123 -700h-86zM148 891h58q-5 -33 13 -54t58 -21t64 20.5t29 54.5h62q-12 -70 -56.5 -108t-111.5 -38q-66 0 -97 38t-19 108z" />
<glyph unicode="&#x12d;" horiz-adv-x="240" d="M80 0l91 516h80l-91 -516h-80zM117 729h56q-8 -40 8 -64.5t52 -24.5q71 0 88 89h60q-14 -76 -57 -116t-103 -40t-89 40t-15 116z" />
<glyph unicode="&#x12e;" horiz-adv-x="266" d="M-46 -165q0 94 142 165h-6l123 700h86l-123 -700q-76 -35 -113.5 -70.5t-37.5 -78.5q0 -20 12.5 -31.5t31.5 -11.5q33 0 77 23l-9 -55q-48 -24 -96 -24q-40 0 -63.5 23t-23.5 60z" />
<glyph unicode="&#x12f;" horiz-adv-x="240" d="M-62 -165q0 94 142 165l91 516h80l-91 -516q-76 -35 -113.5 -70.5t-37.5 -78.5q0 -20 12.5 -31.5t31.5 -11.5q33 0 77 23l-9 -55q-48 -24 -96 -24q-40 0 -63.5 23t-23.5 60zM180 653q0 24 20.5 43t45.5 19q20 0 33.5 -14t13.5 -34q0 -24 -20.5 -43t-45.5 -19 q-20 0 -33.5 14t-13.5 34z" />
<glyph unicode="&#x130;" horiz-adv-x="266" d="M90 0l123 700h86l-123 -700h-86zM222 818q0 24 20.5 43t45.5 19q20 0 33.5 -14t13.5 -34q0 -24 -20.5 -43t-45.5 -19q-20 0 -33.5 14t-13.5 34z" />
<glyph unicode="&#x131;" horiz-adv-x="240" d="M80 0l91 516h80l-91 -516h-80z" />
<glyph unicode="&#x132;" horiz-adv-x="825" d="M90 0l123 700h86l-123 -700h-86zM335 220h93q-12 -91 13.5 -129.5t89.5 -38.5q59 0 104 33t56 97l91 518h86l-87 -498q-19 -108 -92 -162.5t-170 -54.5q-96 0 -149 56.5t-35 178.5z" />
<glyph unicode="&#x133;" horiz-adv-x="480" d="M80 0l91 516h80l-91 -516h-80zM180 653q0 24 20.5 43t45.5 19q20 0 33.5 -14t13.5 -34q0 -24 -20.5 -43t-45.5 -19q-20 0 -33.5 14t-13.5 34zM283 -208l128 724h80l-128 -724h-80zM420 653q0 24 20.5 43t45.5 19q20 0 33.5 -14t13.5 -34q0 -24 -20.5 -43t-45.5 -19 q-20 0 -33.5 14t-13.5 34z" />
<glyph unicode="&#x134;" horiz-adv-x="559" d="M69 220h93q-12 -91 13.5 -129.5t89.5 -38.5q59 0 104 33t56 97l91 518h86l-87 -498q-19 -108 -92 -162.5t-170 -54.5q-96 0 -149 56.5t-35 178.5zM385 753l171 138h75l123 -138h-78l-93 70l-116 -70h-82z" />
<glyph unicode="&#x135;" horiz-adv-x="240" d="M43 -208l128 724h80l-128 -724h-80zM68 581l134 148h94l80 -148h-68l-68 90l-100 -90h-72z" />
<glyph unicode="&#x136;" horiz-adv-x="607" d="M90 0l123 700h86l-59 -335l321 335h101l-328 -331l243 -369h-107l-230 365l-64 -365h-86zM180 -248l52 180h79l-71 -180h-60z" />
<glyph unicode="&#x137;" horiz-adv-x="495" d="M80 0l131 744h80l-82 -469l258 241h96l-267 -240l199 -276h-97l-190 275l-48 -275h-80zM130 -248l52 180h79l-71 -180h-60z" />
<glyph unicode="&#x138;" horiz-adv-x="495" d="M80 0l91 516h80l-42 -240l258 240h96l-267 -240l199 -276h-97l-190 274l-48 -274h-80z" />
<glyph unicode="&#x139;" horiz-adv-x="520" d="M90 0l123 700h86l-111 -633h284l-12 -67h-370zM182 753l152 138h121l-189 -138h-84z" />
<glyph unicode="&#x13a;" horiz-adv-x="240" d="M80 0l131 744h80l-131 -744h-80zM179 783l152 138h121l-189 -138h-84z" />
<glyph unicode="&#x13b;" horiz-adv-x="520" d="M90 0l123 700h86l-111 -633h284l-12 -67h-370zM162 -248l52 180h79l-71 -180h-60z" />
<glyph unicode="&#x13c;" horiz-adv-x="240" d="M23 -248l52 180h79l-71 -180h-60zM80 0l131 744h80l-131 -744h-80z" />
<glyph unicode="&#x13d;" horiz-adv-x="520" d="M90 0l123 700h86l-111 -633h284l-12 -67h-370zM339 583l39 220h77l-58 -220h-58z" />
<glyph unicode="&#x13e;" horiz-adv-x="240" d="M80 0l131 744h80l-131 -744h-80zM323 583l39 220h77l-58 -220h-58z" />
<glyph unicode="&#x13f;" horiz-adv-x="520" d="M90 0l123 700h86l-111 -633h284l-12 -67h-370zM329 356q0 29 22 49t50 20q22 0 36 -14.5t14 -36.5q0 -29 -21.5 -49t-49.5 -20q-22 0 -36.5 14.5t-14.5 36.5z" />
<glyph unicode="&#x140;" horiz-adv-x="280" d="M80 0l131 744h80l-131 -744h-80zM263 356q0 29 22 49t50 20q22 0 36 -14.5t14 -36.5q0 -29 -21.5 -49t-49.5 -20q-22 0 -36.5 14.5t-14.5 36.5z" />
<glyph unicode="&#x141;" horiz-adv-x="520" d="M40 226l13 76l99 53l61 345h86l-52 -295l159 84l-13 -76l-159 -84l-46 -262h284l-12 -67h-370l49 278z" />
<glyph unicode="&#x142;" horiz-adv-x="240" d="M47 268l13 72l88 47l63 357h80l-55 -311l89 47l-13 -72l-88 -47l-64 -361h-80l55 315z" />
<glyph unicode="&#x143;" horiz-adv-x="713" d="M90 0l123 700h98l256 -586l17 110l84 476h78l-123 -700h-98l-256 586l-18 -110l-83 -476h-78zM395 753l152 138h121l-189 -138h-84z" />
<glyph unicode="&#x144;" horiz-adv-x="586" d="M80 0l91 516h80l-12 -67q42 36 94.5 59t100.5 23q73 0 112 -42t24 -127l-64 -362h-80l60 342q22 122 -87 122q-41 0 -89 -21t-81 -50l-69 -393h-80zM301 581l125 148h111l-162 -148h-74z" />
<glyph unicode="&#x145;" horiz-adv-x="713" d="M90 0l123 700h98l256 -586l17 110l84 476h78l-123 -700h-98l-256 586l-18 -110l-83 -476h-78zM253 -248l52 180h79l-71 -180h-60z" />
<glyph unicode="&#x146;" horiz-adv-x="586" d="M80 0l91 516h80l-12 -67q42 36 94.5 59t100.5 23q73 0 112 -42t24 -127l-64 -362h-80l60 342q22 122 -87 122q-41 0 -89 -21t-81 -50l-69 -393h-80zM190 -248l52 180h79l-71 -180h-60z" />
<glyph unicode="&#x147;" horiz-adv-x="713" d="M90 0l123 700h98l256 -586l17 110l84 476h78l-123 -700h-98l-256 586l-18 -110l-83 -476h-78zM329 891h78l92 -70l117 70h82l-171 -138h-75z" />
<glyph unicode="&#x148;" horiz-adv-x="586" d="M80 0l91 516h80l-12 -67q42 36 94.5 59t100.5 23q73 0 112 -42t24 -127l-64 -362h-80l60 342q22 122 -87 122q-41 0 -89 -21t-81 -50l-69 -393h-80zM258 729h68l68 -90l100 90h72l-134 -148h-94z" />
<glyph unicode="&#x14a;" horiz-adv-x="713" d="M90 0l123 700h98l256 -586l17 110l84 476h78l-123 -700q-21 -119 -94 -171t-168 -52q-45 0 -73 16l10 62q42 -11 74 -11q68 0 108 29.5t54 107.5l-265 605l-18 -110l-83 -476h-78z" />
<glyph unicode="&#x14b;" horiz-adv-x="586" d="M80 0l91 516h80l-12 -67q42 36 94.5 59t100.5 23q73 0 112 -42t24 -127l-101 -570h-80l97 550q22 122 -87 122q-41 0 -89 -21t-81 -50l-69 -393h-80z" />
<glyph unicode="&#x14c;" horiz-adv-x="740" d="M103 276q0 192 111 315.5t282 123.5q124 0 194 -79t70 -212q0 -192 -111 -315.5t-282 -123.5q-124 0 -194 79t-70 212zM196 276q0 -111 50.5 -167.5t132.5 -56.5q121 0 204.5 96.5t83.5 275.5q0 112 -50 168t-133 56q-120 0 -204 -96.5t-84 -275.5zM354 787l11 63h310 l-11 -63h-310z" />
<glyph unicode="&#x14d;" horiz-adv-x="582" d="M89 202q0 142 81.5 235.5t214.5 93.5q96 0 147.5 -59t51.5 -158q0 -142 -81.5 -235.5t-214.5 -93.5q-96 0 -147.5 59t-51.5 158zM175 201q0 -78 33.5 -117.5t90.5 -39.5q87 0 143 70.5t56 200.5q0 78 -33.5 117.5t-90.5 39.5q-87 0 -143 -70.5t-56 -200.5zM254 612l11 63 h290l-11 -63h-290z" />
<glyph unicode="&#x14e;" horiz-adv-x="740" d="M103 276q0 192 111 315.5t282 123.5q124 0 194 -79t70 -212q0 -192 -111 -315.5t-282 -123.5q-124 0 -194 79t-70 212zM196 276q0 -111 50.5 -167.5t132.5 -56.5q121 0 204.5 96.5t83.5 275.5q0 112 -50 168t-133 56q-120 0 -204 -96.5t-84 -275.5zM385 891h58 q-5 -33 13 -54t58 -21t64 20.5t29 54.5h62q-12 -70 -56.5 -108t-111.5 -38q-66 0 -97 38t-19 108z" />
<glyph unicode="&#x14f;" horiz-adv-x="582" d="M89 202q0 142 81.5 235.5t214.5 93.5q96 0 147.5 -59t51.5 -158q0 -142 -81.5 -235.5t-214.5 -93.5q-96 0 -147.5 59t-51.5 158zM175 201q0 -78 33.5 -117.5t90.5 -39.5q87 0 143 70.5t56 200.5q0 78 -33.5 117.5t-90.5 39.5q-87 0 -143 -70.5t-56 -200.5zM288 729h56 q-8 -40 8 -64.5t52 -24.5q71 0 88 89h60q-14 -76 -57 -116t-103 -40t-89 40t-15 116z" />
<glyph unicode="&#x150;" horiz-adv-x="740" d="M103 276q0 192 111 315.5t282 123.5q124 0 194 -79t70 -212q0 -192 -111 -315.5t-282 -123.5q-124 0 -194 79t-70 212zM196 276q0 -111 50.5 -167.5t132.5 -56.5q121 0 204.5 96.5t83.5 275.5q0 112 -50 168t-133 56q-120 0 -204 -96.5t-84 -275.5zM333 753l134 138h114 l-171 -138h-77zM510 753l134 138h114l-171 -138h-77z" />
<glyph unicode="&#x151;" horiz-adv-x="582" d="M89 202q0 142 81.5 235.5t214.5 93.5q96 0 147.5 -59t51.5 -158q0 -142 -81.5 -235.5t-214.5 -93.5q-96 0 -147.5 59t-51.5 158zM175 201q0 -78 33.5 -117.5t90.5 -39.5q87 0 143 70.5t56 200.5q0 78 -33.5 117.5t-90.5 39.5q-87 0 -143 -70.5t-56 -200.5zM260 581 l107 148h99l-136 -148h-70zM407 581l107 148h99l-136 -148h-70z" />
<glyph unicode="&#x152;" horiz-adv-x="942" d="M104 284q0 189 118.5 302.5t309.5 113.5h483l-11 -67h-319l-41 -231h299l-12 -67h-299l-47 -268h319l-12 -67h-483q-143 0 -224 75.5t-81 208.5zM197 286q0 -113 60.5 -166t163.5 -53h78l100 566h-78q-143 0 -233.5 -85t-90.5 -262z" />
<glyph unicode="&#x153;" horiz-adv-x="939" d="M89 202q0 142 81.5 235.5t214.5 93.5q134 0 177 -112q37 54 91.5 83t109.5 29q112 0 156 -74.5t14 -203.5h-360q-3 -29 -3 -60q0 -149 107 -149q99 0 137 96h89q-20 -65 -86.5 -110t-150.5 -45q-129 0 -165 108q-78 -108 -213 -108q-96 0 -147.5 59t-51.5 158zM175 201 q0 -78 33.5 -117.5t90.5 -39.5q87 0 143 70.5t56 200.5q0 78 -33.5 117.5t-90.5 39.5q-87 0 -143 -70.5t-56 -200.5zM583 309h268q14 79 -12.5 121t-86.5 42q-57 0 -103 -42t-66 -121z" />
<glyph unicode="&#x154;" horiz-adv-x="610" d="M90 0l123 700h207q93 0 153 -43.5t60 -131.5q0 -100 -59.5 -160t-151.5 -78l158 -287h-102l-142 280h-111l-49 -280h-86zM237 347h121q86 0 135.5 42t49.5 131q0 113 -134 113h-121zM314 753l152 138h121l-189 -138h-84z" />
<glyph unicode="&#x155;" horiz-adv-x="391" d="M80 0l91 516h80l-16 -89q85 104 168 104q38 0 57 -27l-11 -64q-37 16 -66 16q-43 0 -87 -29.5t-73 -70.5l5 30l-68 -386h-80zM223 581l125 148h111l-162 -148h-74z" />
<glyph unicode="&#x156;" horiz-adv-x="610" d="M90 0l123 700h207q93 0 153 -43.5t60 -131.5q0 -100 -59.5 -160t-151.5 -78l158 -287h-102l-142 280h-111l-49 -280h-86zM192 -248l52 180h79l-71 -180h-60zM237 347h121q86 0 135.5 42t49.5 131q0 113 -134 113h-121z" />
<glyph unicode="&#x157;" horiz-adv-x="391" d="M22 -248l52 180h79l-71 -180h-60zM80 0l91 516h80l-16 -89q85 104 168 104q38 0 57 -27l-11 -64q-37 16 -66 16q-43 0 -87 -29.5t-73 -70.5l5 30l-68 -386h-80z" />
<glyph unicode="&#x158;" horiz-adv-x="610" d="M90 0l123 700h207q93 0 153 -43.5t60 -131.5q0 -100 -59.5 -160t-151.5 -78l158 -287h-102l-142 280h-111l-49 -280h-86zM237 347h121q86 0 135.5 42t49.5 131q0 113 -134 113h-121zM248 891h78l92 -70l117 70h82l-171 -138h-75z" />
<glyph unicode="&#x159;" horiz-adv-x="391" d="M80 0l91 516h80l-16 -89q85 104 168 104q38 0 57 -27l-11 -64q-37 16 -66 16q-43 0 -87 -29.5t-73 -70.5l5 30l-68 -386h-80zM180 729h68l68 -90l100 90h72l-134 -148h-94z" />
<glyph unicode="&#x15a;" d="M86 205h93q-8 -81 31 -117t106 -36q75 0 128.5 41.5t53.5 114.5q0 24 -9.5 42t-21 28.5t-35 20t-38.5 13.5t-45 10q-43 9 -71.5 19t-62 28.5t-50.5 49t-17 72.5q0 100 79 162t194 62q110 0 167.5 -55t44.5 -155h-93q7 75 -29.5 109t-101.5 34q-75 0 -123 -35t-48 -104 q0 -23 9 -41t20 -28.5t34 -19.5t37.5 -13t44.5 -10q34 -7 57.5 -14t54 -20.5t49 -30.5t32 -44.5t13.5 -61.5q0 -104 -85.5 -172.5t-199.5 -68.5q-111 0 -171.5 57t-46.5 163zM319 753l152 138h121l-189 -138h-84z" />
<glyph unicode="&#x15b;" horiz-adv-x="508" d="M75 144h87q-2 -100 111 -100q56 0 94.5 28.5t38.5 77.5q0 17 -8 30t-17.5 20.5t-30 14.5t-30.5 9l-35 7q-27 5 -45.5 9.5t-44 15t-40.5 22.5t-26 33t-11 47q0 80 63.5 126.5t164.5 46.5q89 0 132.5 -38t35.5 -106h-87q3 85 -97 85q-58 0 -94 -24.5t-36 -69.5 q0 -17 7.5 -30t15 -20t27.5 -13.5t28.5 -8.5t33.5 -7q36 -7 59.5 -14t54 -21t46 -37.5t15.5 -55.5q0 -80 -66.5 -133t-163.5 -53q-101 0 -145.5 43t-36.5 116zM261 581l125 148h111l-162 -148h-74z" />
<glyph unicode="&#x15c;" d="M86 205h93q-8 -81 31 -117t106 -36q75 0 128.5 41.5t53.5 114.5q0 24 -9.5 42t-21 28.5t-35 20t-38.5 13.5t-45 10q-43 9 -71.5 19t-62 28.5t-50.5 49t-17 72.5q0 100 79 162t194 62q110 0 167.5 -55t44.5 -155h-93q7 75 -29.5 109t-101.5 34q-75 0 -123 -35t-48 -104 q0 -23 9 -41t20 -28.5t34 -19.5t37.5 -13t44.5 -10q34 -7 57.5 -14t54 -20.5t49 -30.5t32 -44.5t13.5 -61.5q0 -104 -85.5 -172.5t-199.5 -68.5q-111 0 -171.5 57t-46.5 163zM249 753l171 138h75l123 -138h-78l-93 70l-116 -70h-82z" />
<glyph unicode="&#x15d;" horiz-adv-x="508" d="M75 144h87q-2 -100 111 -100q56 0 94.5 28.5t38.5 77.5q0 17 -8 30t-17.5 20.5t-30 14.5t-30.5 9l-35 7q-27 5 -45.5 9.5t-44 15t-40.5 22.5t-26 33t-11 47q0 80 63.5 126.5t164.5 46.5q89 0 132.5 -38t35.5 -106h-87q3 85 -97 85q-58 0 -94 -24.5t-36 -69.5 q0 -17 7.5 -30t15 -20t27.5 -13.5t28.5 -8.5t33.5 -7q36 -7 59.5 -14t54 -21t46 -37.5t15.5 -55.5q0 -80 -66.5 -133t-163.5 -53q-101 0 -145.5 43t-36.5 116zM202 581l134 148h94l80 -148h-68l-68 90l-100 -90h-72z" />
<glyph unicode="&#x15e;" d="M86 205h93q-8 -81 31 -117t106 -36q75 0 128.5 41.5t53.5 114.5q0 24 -9.5 42t-21 28.5t-35 20t-38.5 13.5t-45 10q-43 9 -71.5 19t-62 28.5t-50.5 49t-17 72.5q0 100 79 162t194 62q110 0 167.5 -55t44.5 -155h-93q7 75 -29.5 109t-101.5 34q-75 0 -123 -35t-48 -104 q0 -23 9 -41t20 -28.5t34 -19.5t37.5 -13t44.5 -10q34 -7 57.5 -14t54 -20.5t49 -30.5t32 -44.5t13.5 -61.5q0 -100 -80 -168t-190 -73l-48 -52q43 4 70.5 -14t27.5 -55q0 -50 -42 -81t-94 -31q-41 0 -68 14l9 51q25 -13 62 -13q25 0 46 13.5t21 35.5q0 18 -15 28t-36 10 q-26 0 -45 -6l-13 31l66 71q-92 12 -139 67.5t-35 150.5z" />
<glyph unicode="&#x15f;" horiz-adv-x="508" d="M75 144h87q-2 -100 111 -100q56 0 94.5 28.5t38.5 77.5q0 17 -8 30t-17.5 20.5t-30 14.5t-30.5 9l-35 7q-27 5 -45.5 9.5t-44 15t-40.5 22.5t-26 33t-11 47q0 80 63.5 126.5t164.5 46.5q89 0 132.5 -38t35.5 -106h-87q3 85 -97 85q-58 0 -94 -24.5t-36 -69.5 q0 -17 7.5 -30t15 -20t27.5 -13.5t28.5 -8.5t33.5 -7q36 -7 59.5 -14t54 -21t46 -37.5t15.5 -55.5q0 -76 -61 -128.5t-152 -57.5l-49 -52q43 4 70.5 -14t27.5 -55q0 -50 -42 -81t-94 -31q-41 0 -68 14l9 51q25 -13 62 -13q25 0 46 13.5t21 35.5q0 18 -15 28t-36 10 q-26 0 -45 -6l-13 31l66 71q-78 9 -112 51t-27 106z" />
<glyph unicode="&#x160;" d="M86 205h93q-8 -81 31 -117t106 -36q75 0 128.5 41.5t53.5 114.5q0 24 -9.5 42t-21 28.5t-35 20t-38.5 13.5t-45 10q-43 9 -71.5 19t-62 28.5t-50.5 49t-17 72.5q0 100 79 162t194 62q110 0 167.5 -55t44.5 -155h-93q7 75 -29.5 109t-101.5 34q-75 0 -123 -35t-48 -104 q0 -23 9 -41t20 -28.5t34 -19.5t37.5 -13t44.5 -10q34 -7 57.5 -14t54 -20.5t49 -30.5t32 -44.5t13.5 -61.5q0 -104 -85.5 -172.5t-199.5 -68.5q-111 0 -171.5 57t-46.5 163zM263 891h78l92 -70l117 70h82l-171 -138h-75z" />
<glyph unicode="&#x161;" horiz-adv-x="508" d="M75 144h87q-2 -100 111 -100q56 0 94.5 28.5t38.5 77.5q0 17 -8 30t-17.5 20.5t-30 14.5t-30.5 9l-35 7q-27 5 -45.5 9.5t-44 15t-40.5 22.5t-26 33t-11 47q0 80 63.5 126.5t164.5 46.5q89 0 132.5 -38t35.5 -106h-87q3 85 -97 85q-58 0 -94 -24.5t-36 -69.5 q0 -17 7.5 -30t15 -20t27.5 -13.5t28.5 -8.5t33.5 -7q36 -7 59.5 -14t54 -21t46 -37.5t15.5 -55.5q0 -80 -66.5 -133t-163.5 -53q-101 0 -145.5 43t-36.5 116zM219 729h68l68 -90l100 90h72l-134 -148h-94z" />
<glyph unicode="&#x162;" horiz-adv-x="542" d="M142 633l11 67h482l-11 -67h-198l-112 -633l-62 -67q43 4 70.5 -14t27.5 -55q0 -50 -42 -81t-94 -31q-41 0 -68 14l9 51q25 -13 62 -13q25 0 46 13.5t21 35.5q0 18 -15 28t-36 10q-26 0 -45 -6l-13 31l78 84h-25l112 633h-198z" />
<glyph unicode="&#x163;" horiz-adv-x="380" d="M80 -234l9 51q25 -13 62 -13q25 0 46 13.5t21 35.5q0 18 -15 28t-36 10q-26 0 -45 -6l-13 31l73 79q-68 29 -52 119l60 344h-89l10 58h90l25 144h80l-25 -144h150l-10 -58h-150l-57 -324q-15 -86 56 -86q37 0 91 17l-10 -57q-49 -23 -117 -23l-48 -52q43 4 70.5 -14 t27.5 -55q0 -50 -42 -81t-94 -31q-41 0 -68 14z" />
<glyph unicode="&#x164;" horiz-adv-x="542" d="M142 633l11 67h482l-11 -67h-198l-112 -633h-86l112 633h-198zM244 891h78l92 -70l117 70h82l-171 -138h-75z" />
<glyph unicode="&#x165;" horiz-adv-x="380" d="M101 458l10 58h90l25 144h80l-25 -144h150l-10 -58h-150l-57 -324q-15 -86 56 -86q37 0 91 17l-10 -57q-49 -23 -117 -23q-56 0 -85.5 33.5t-18.5 95.5l60 344h-89zM343 583l39 220h77l-58 -220h-58z" />
<glyph unicode="&#x166;" horiz-adv-x="542" d="M142 633l11 67h482l-11 -67h-198l-45 -252h140l-12 -67h-139l-56 -314h-86l56 314h-141l12 67h140l45 252h-198z" />
<glyph unicode="&#x167;" horiz-adv-x="380" d="M78 275l11 63h80l21 120h-89l10 58h90l25 144h80l-25 -144h150l-10 -58h-150l-21 -120h129l-11 -63h-129l-25 -141q-15 -86 56 -86q37 0 91 17l-10 -57q-49 -23 -117 -23q-56 0 -85.5 33.5t-18.5 95.5l28 161h-80z" />
<glyph unicode="&#x168;" horiz-adv-x="704" d="M120 227l83 473h86l-79 -453q-17 -96 15.5 -145.5t130.5 -49.5q97 0 151.5 47t68.5 128l83 473h78l-79 -453q-22 -122 -106 -192t-208 -70q-125 0 -184.5 64t-39.5 178zM314 796q53 89 123 89q29 0 74 -23.5t58 -23.5q34 0 62 43l41 -23q-52 -89 -121 -89 q-28 0 -73.5 23.5t-59.5 23.5q-32 0 -63 -43z" />
<glyph unicode="&#x169;" horiz-adv-x="582" d="M107 154l64 362h80l-60 -342q-22 -122 85 -122q41 0 88 21t80 50l69 393h80l-91 -516h-80l12 67q-42 -36 -93.5 -59t-99.5 -23q-73 0 -111 41.5t-23 127.5zM237 618q26 43 60.5 66t62.5 23t64 -23.5t49 -23.5q31 0 61 43l41 -23q-25 -43 -59.5 -66t-62.5 -23t-64.5 23.5 t-50.5 23.5q-29 0 -60 -43z" />
<glyph unicode="&#x16a;" horiz-adv-x="704" d="M120 227l83 473h86l-79 -453q-17 -96 15.5 -145.5t130.5 -49.5q97 0 151.5 47t68.5 128l83 473h78l-79 -453q-22 -122 -106 -192t-208 -70q-125 0 -184.5 64t-39.5 178zM331 787l11 63h310l-11 -63h-310z" />
<glyph unicode="&#x16b;" horiz-adv-x="582" d="M107 154l64 362h80l-60 -342q-22 -122 85 -122q41 0 88 21t80 50l69 393h80l-91 -516h-80l12 67q-42 -36 -93.5 -59t-99.5 -23q-73 0 -111 41.5t-23 127.5zM254 612l11 63h290l-11 -63h-290z" />
<glyph unicode="&#x16c;" horiz-adv-x="704" d="M120 227l83 473h86l-79 -453q-17 -96 15.5 -145.5t130.5 -49.5q97 0 151.5 47t68.5 128l83 473h78l-79 -453q-22 -122 -106 -192t-208 -70q-125 0 -184.5 64t-39.5 178zM362 891h58q-5 -33 13 -54t58 -21t64 20.5t29 54.5h62q-12 -70 -56.5 -108t-111.5 -38q-66 0 -97 38 t-19 108z" />
<glyph unicode="&#x16d;" horiz-adv-x="582" d="M107 154l64 362h80l-60 -342q-22 -122 85 -122q41 0 88 21t80 50l69 393h80l-91 -516h-80l12 67q-42 -36 -93.5 -59t-99.5 -23q-73 0 -111 41.5t-23 127.5zM288 729h56q-8 -40 8 -64.5t52 -24.5q71 0 88 89h60q-14 -76 -57 -116t-103 -40t-89 40t-15 116z" />
<glyph unicode="&#x16e;" horiz-adv-x="704" d="M120 227l83 473h86l-79 -453q-17 -96 15.5 -145.5t130.5 -49.5q97 0 151.5 47t68.5 128l83 473h78l-79 -453q-22 -122 -106 -192t-208 -70q-125 0 -184.5 64t-39.5 178zM382 805q0 49 37 79.5t89 30.5q41 0 67 -21.5t26 -58.5q0 -49 -37 -79.5t-89 -30.5q-41 0 -67 21.5 t-26 58.5zM442 810q0 -39 41 -39q26 0 42 16t16 43q0 39 -41 39q-26 0 -42 -16t-16 -43z" />
<glyph unicode="&#x16f;" horiz-adv-x="582" d="M107 154l64 362h80l-60 -342q-22 -122 85 -122q41 0 88 21t80 50l69 393h80l-91 -516h-80l12 67q-42 -36 -93.5 -59t-99.5 -23q-73 0 -111 41.5t-23 127.5zM297 640q0 49 37 79.5t89 30.5q41 0 67 -21.5t26 -58.5q0 -49 -37 -79.5t-89 -30.5q-41 0 -67 21.5t-26 58.5z M357 645q0 -39 41 -39q26 0 42 16t16 43q0 39 -41 39q-26 0 -42 -16t-16 -43z" />
<glyph unicode="&#x170;" horiz-adv-x="704" d="M120 227l83 473h86l-79 -453q-17 -96 15.5 -145.5t130.5 -49.5q97 0 151.5 47t68.5 128l83 473h78l-79 -453q-22 -122 -106 -192t-208 -70q-125 0 -184.5 64t-39.5 178zM310 753l134 138h114l-171 -138h-77zM487 753l134 138h114l-171 -138h-77z" />
<glyph unicode="&#x171;" horiz-adv-x="582" d="M107 154l64 362h80l-60 -342q-22 -122 85 -122q41 0 88 21t80 50l69 393h80l-91 -516h-80l12 67q-42 -36 -93.5 -59t-99.5 -23q-73 0 -111 41.5t-23 127.5zM260 581l107 148h99l-136 -148h-70zM407 581l107 148h99l-136 -148h-70z" />
<glyph unicode="&#x172;" horiz-adv-x="704" d="M120 227l83 473h86l-79 -453q-17 -96 15.5 -145.5t130.5 -49.5q97 0 151.5 47t68.5 128l83 473h78l-79 -453q-17 -97 -75.5 -162.5t-146.5 -88.5q-143 -67 -143 -145q0 -20 12.5 -31.5t31.5 -11.5q33 0 77 23l-9 -55q-48 -24 -96 -24q-40 0 -63.5 23t-23.5 60 q0 84 114 150q-121 2 -178.5 66t-37.5 176z" />
<glyph unicode="&#x173;" horiz-adv-x="582" d="M107 154l64 362h80l-60 -342q-22 -122 85 -122q41 0 88 21t80 50l69 393h80l-91 -516q-76 -35 -113.5 -70.5t-37.5 -78.5q0 -20 12.5 -31.5t31.5 -11.5q33 0 77 23l-9 -55q-48 -24 -96 -24q-40 0 -63.5 23t-23.5 60q0 94 142 165l12 67q-42 -36 -93.5 -59t-99.5 -23 q-73 0 -111 41.5t-23 127.5z" />
<glyph unicode="&#x174;" horiz-adv-x="910" d="M133 700h89l41 -478l9 -114l50 114l213 478h95l51 -478l11 -118l243 596h88l-303 -700h-90l-54 476l-12 118l-52 -118l-216 -476h-90zM404 753l171 138h75l123 -138h-78l-93 70l-116 -70h-82z" />
<glyph unicode="&#x175;" horiz-adv-x="788" d="M111 516h85l41 -313l14 -114l51 114l144 313h76l40 -313l14 -114l52 114l148 313h83l-261 -516h-75l-41 295l-15 114l-53 -114l-139 -295h-77zM342 581l134 148h94l80 -148h-68l-68 90l-100 -90h-72z" />
<glyph unicode="&#x176;" horiz-adv-x="590" d="M153 700h89l118 -373l234 373h89l-294 -445l-45 -255h-86l45 255zM244 753l171 138h75l123 -138h-78l-93 70l-116 -70h-82z" />
<glyph unicode="&#x177;" horiz-adv-x="505" d="M96 -208l124 214l-109 510h87l58 -302l19 -114l58 114l160 302h83l-402 -724h-78zM210 581l134 148h94l80 -148h-68l-68 90l-100 -90h-72z" />
<glyph unicode="&#x178;" horiz-adv-x="590" d="M153 700h89l118 -373l234 373h89l-294 -445l-45 -255h-86l45 255zM278 818q0 24 20.5 43t45.5 19q20 0 33.5 -14t13.5 -34q0 -24 -20.5 -43t-45.5 -19q-20 0 -33.5 14t-13.5 34zM490 818q0 24 20.5 43t45.5 19q20 0 33.5 -14t13.5 -34q0 -24 -20.5 -43t-45.5 -19 q-20 0 -33.5 14t-13.5 34z" />
<glyph unicode="&#x179;" horiz-adv-x="532" d="M40 0l12 67l453 566h-343l11 67h442l-11 -67l-453 -566h353l-12 -67h-452zM315 753l152 138h121l-189 -138h-84z" />
<glyph unicode="&#x17a;" horiz-adv-x="440" d="M40 0l10 58l342 400h-261l10 58h350l-10 -58l-342 -400h271l-10 -58h-360zM248 581l125 148h111l-162 -148h-74z" />
<glyph unicode="&#x17b;" horiz-adv-x="532" d="M40 0l12 67l453 566h-343l11 67h442l-11 -67l-453 -566h353l-12 -67h-452zM355 818q0 24 20.5 43t45.5 19q20 0 33.5 -14t13.5 -34q0 -24 -20.5 -43t-45.5 -19q-20 0 -33.5 14t-13.5 34z" />
<glyph unicode="&#x17c;" horiz-adv-x="440" d="M40 0l10 58l342 400h-261l10 58h350l-10 -58l-342 -400h271l-10 -58h-360zM280 653q0 24 20.5 43t45.5 19q20 0 33.5 -14t13.5 -34q0 -24 -20.5 -43t-45.5 -19q-20 0 -33.5 14t-13.5 34z" />
<glyph unicode="&#x17d;" horiz-adv-x="532" d="M40 0l12 67l453 566h-343l11 67h442l-11 -67l-453 -566h353l-12 -67h-452zM239 891h78l92 -70l117 70h82l-171 -138h-75z" />
<glyph unicode="&#x17e;" horiz-adv-x="440" d="M40 0l10 58l342 400h-261l10 58h350l-10 -58l-342 -400h271l-10 -58h-360zM195 729h68l68 -90l100 90h72l-134 -148h-94z" />
<glyph unicode="&#x17f;" horiz-adv-x="300" d="M110 0l108 615q26 144 180 144q45 0 73 -16l-10 -57q-42 11 -63 11q-85 0 -100 -82l-108 -615h-80z" />
<glyph unicode="&#x192;" horiz-adv-x="602" d="M-48 -43h93q-8 -113 81 -113q44 0 79.5 30t47.5 97l43 243h-160l12 67h160l40 228q17 96 80.5 151t145.5 55q86 0 129.5 -47.5t32.5 -132.5h-93q8 113 -81 113q-43 0 -78.5 -30t-47.5 -97l-42 -240h160l-12 -67h-160l-41 -231q-17 -96 -80.5 -151t-145.5 -55 q-86 0 -129.5 47t-33.5 133z" />
<glyph unicode="&#x1fc;" horiz-adv-x="935" d="M10 0l593 700h405l-11 -67h-319l-41 -231h299l-12 -67h-299l-47 -268h319l-12 -67h-405l35 198h-241l-164 -198h-100zM329 264h197l54 305l-92 -114zM646 753l152 138h121l-189 -138h-84z" />
<glyph unicode="&#x1fd;" horiz-adv-x="879" d="M69 99q0 33 14.5 64t44.5 59.5t87 46t133 17.5q35 0 88 -5l11 64q22 127 -83 127q-117 0 -145 -126h-87q16 87 82.5 136t160.5 49q120 0 149 -79q76 79 179 79q112 0 156 -74.5t14 -203.5h-360q-3 -29 -3 -60q0 -149 107 -149q99 0 137 96h89q-20 -65 -86.5 -110 t-150.5 -45q-133 0 -168 108q-47 -48 -108.5 -78t-125.5 -30q-62 0 -98.5 31t-36.5 83zM155 117q0 -67 85 -67q47 0 97.5 28.5t88.5 66.5q-4 33 1 82q-40 4 -82 4q-190 0 -190 -114zM492 581l125 148h111l-162 -148h-74zM523 309h268q14 79 -12.5 121t-86.5 42 q-57 0 -103 -42t-66 -121z" />
<glyph unicode="&#x218;" d="M86 205h93q-8 -81 31 -117t106 -36q75 0 128.5 41.5t53.5 114.5q0 24 -9.5 42t-21 28.5t-35 20t-38.5 13.5t-45 10q-43 9 -71.5 19t-62 28.5t-50.5 49t-17 72.5q0 100 79 162t194 62q110 0 167.5 -55t44.5 -155h-93q7 75 -29.5 109t-101.5 34q-75 0 -123 -35t-48 -104 q0 -23 9 -41t20 -28.5t34 -19.5t37.5 -13t44.5 -10q34 -7 57.5 -14t54 -20.5t49 -30.5t32 -44.5t13.5 -61.5q0 -104 -85.5 -172.5t-199.5 -68.5q-111 0 -171.5 57t-46.5 163zM197 -248l52 180h79l-71 -180h-60z" />
<glyph unicode="&#x219;" horiz-adv-x="508" d="M75 144h87q-2 -100 111 -100q56 0 94.5 28.5t38.5 77.5q0 17 -8 30t-17.5 20.5t-30 14.5t-30.5 9l-35 7q-27 5 -45.5 9.5t-44 15t-40.5 22.5t-26 33t-11 47q0 80 63.5 126.5t164.5 46.5q89 0 132.5 -38t35.5 -106h-87q3 85 -97 85q-58 0 -94 -24.5t-36 -69.5 q0 -17 7.5 -30t15 -20t27.5 -13.5t28.5 -8.5t33.5 -7q36 -7 59.5 -14t54 -21t46 -37.5t15.5 -55.5q0 -80 -66.5 -133t-163.5 -53q-101 0 -145.5 43t-36.5 116zM161 -248l52 180h79l-71 -180h-60z" />
<glyph unicode="&#x21a;" horiz-adv-x="542" d="M142 633l11 67h482l-11 -67h-198l-112 -633h-86l112 633h-198zM168 -248l52 180h79l-71 -180h-60z" />
<glyph unicode="&#x21b;" horiz-adv-x="380" d="M92 -248l52 180h79l-71 -180h-60zM101 458l10 58h90l25 144h80l-25 -144h150l-10 -58h-150l-57 -324q-15 -86 56 -86q37 0 91 17l-10 -57q-49 -23 -117 -23q-56 0 -85.5 33.5t-18.5 95.5l60 344h-89z" />
<glyph unicode="&#x2c6;" horiz-adv-x="408" d="M152 581l134 148h94l80 -148h-68l-68 90l-100 -90h-72z" />
<glyph unicode="&#x2c7;" horiz-adv-x="408" d="M179 729h68l68 -90l100 90h72l-134 -148h-94z" />
<glyph unicode="&#x2d8;" horiz-adv-x="364" d="M179 729h56q-8 -40 8 -64.5t52 -24.5q71 0 88 89h60q-14 -76 -57 -116t-103 -40t-89 40t-15 116z" />
<glyph unicode="&#x2d9;" horiz-adv-x="212" d="M166 653q0 24 20.5 43t45.5 19q20 0 33.5 -14t13.5 -34q0 -24 -20.5 -43t-45.5 -19q-20 0 -33.5 14t-13.5 34z" />
<glyph unicode="&#x2da;" horiz-adv-x="316" d="M164 640q0 49 37 79.5t89 30.5q41 0 67 -21.5t26 -58.5q0 -49 -37 -79.5t-89 -30.5q-41 0 -67 21.5t-26 58.5zM224 645q0 -39 41 -39q26 0 42 16t16 43q0 39 -41 39q-26 0 -42 -16t-16 -43z" />
<glyph unicode="&#x2db;" horiz-adv-x="294" d="M22 -165q0 94 142 165h80q-76 -35 -113.5 -70.5t-37.5 -78.5q0 -20 12.5 -31.5t31.5 -11.5q33 0 77 23l-9 -55q-48 -24 -96 -24q-40 0 -63.5 23t-23.5 60z" />
<glyph unicode="&#x2dc;" horiz-adv-x="427" d="M159 618q26 43 60.5 66t62.5 23t64 -23.5t49 -23.5q31 0 61 43l41 -23q-25 -43 -59.5 -66t-62.5 -23t-64.5 23.5t-50.5 23.5q-29 0 -60 -43z" />
<glyph unicode="&#x2dd;" horiz-adv-x="426" d="M152 581l107 148h99l-136 -148h-70zM299 581l107 148h99l-136 -148h-70z" />
<glyph unicode="&#x326;" horiz-adv-x="0" d="M-193 -248l52 180h79l-71 -180h-60z" />
<glyph unicode="&#x3c0;" horiz-adv-x="586" d="M80 0l91 516h426l-91 -516h-80l81 458h-266l-81 -458h-80z" />
<glyph unicode="&#xe3f;" horiz-adv-x="623" d="M90 0l123 700h172l21 120h78l-21 -121q77 -6 126 -41.5t49 -106.5q0 -66 -44.5 -120t-103.5 -69q52 -5 87 -36.5t35 -91.5q0 -103 -76 -166.5t-197 -67.5l-21 -120h-78l21 120h-171zM188 67h85l45 252h-86zM244 386h85l44 247h-85zM351 67q89 3 129.5 46t40.5 112 q0 89 -126 94zM408 388q65 9 102 50t37 105q0 79 -96 89z" />
<glyph unicode="&#x1e80;" horiz-adv-x="910" d="M133 700h89l41 -478l9 -114l50 114l213 478h95l51 -478l11 -118l243 596h88l-303 -700h-90l-54 476l-12 118l-52 -118l-216 -476h-90zM468 891h111l114 -138h-76z" />
<glyph unicode="&#x1e81;" horiz-adv-x="788" d="M111 516h85l41 -313l14 -114l51 114l144 313h76l40 -313l14 -114l52 114l148 313h83l-261 -516h-75l-41 295l-15 114l-53 -114l-139 -295h-77zM389 729h101l81 -148h-66z" />
<glyph unicode="&#x1e82;" horiz-adv-x="910" d="M133 700h89l41 -478l9 -114l50 114l213 478h95l51 -478l11 -118l243 596h88l-303 -700h-90l-54 476l-12 118l-52 -118l-216 -476h-90zM484 753l152 138h121l-189 -138h-84z" />
<glyph unicode="&#x1e83;" horiz-adv-x="788" d="M111 516h85l41 -313l14 -114l51 114l144 313h76l40 -313l14 -114l52 114l148 313h83l-261 -516h-75l-41 295l-15 114l-53 -114l-139 -295h-77zM422 581l125 148h111l-162 -148h-74z" />
<glyph unicode="&#x1e84;" horiz-adv-x="910" d="M133 700h89l41 -478l9 -114l50 114l213 478h95l51 -478l11 -118l243 596h88l-303 -700h-90l-54 476l-12 118l-52 -118l-216 -476h-90zM438 818q0 24 20.5 43t45.5 19q20 0 33.5 -14t13.5 -34q0 -24 -20.5 -43t-45.5 -19q-20 0 -33.5 14t-13.5 34zM650 818q0 24 20.5 43 t45.5 19q20 0 33.5 -14t13.5 -34q0 -24 -20.5 -43t-45.5 -19q-20 0 -33.5 14t-13.5 34z" />
<glyph unicode="&#x1e85;" horiz-adv-x="788" d="M111 516h85l41 -313l14 -114l51 114l144 313h76l40 -313l14 -114l52 114l148 313h83l-261 -516h-75l-41 295l-15 114l-53 -114l-139 -295h-77zM363 653q0 24 20.5 43t45.5 19q20 0 33.5 -14t13.5 -34q0 -24 -20.5 -43t-45.5 -19q-20 0 -33.5 14t-13.5 34zM545 653 q0 24 20.5 43t45.5 19q20 0 33.5 -14t13.5 -34q0 -24 -20.5 -43t-45.5 -19q-20 0 -33.5 14t-13.5 34z" />
<glyph unicode="&#x1e9e;" horiz-adv-x="738" d="M90 0l71 402q53 298 305 298h232l-11 -67l-213 -240q50 -7 86.5 -27t55 -47t26.5 -53.5t8 -55.5q0 -70 -38.5 -123t-93 -77.5t-111.5 -24.5q-80 0 -123 38t-32 100h93q-4 -36 17.5 -53.5t61.5 -17.5q57 0 96 38.5t39 111.5q0 56 -40 92t-117 36h-30l12 67l209 236h-138 q-83 0 -134.5 -52t-71.5 -169l-73 -412h-86z" />
<glyph unicode="&#x1ef2;" horiz-adv-x="590" d="M153 700h89l118 -373l234 373h89l-294 -445l-45 -255h-86l45 255zM308 891h111l114 -138h-76z" />
<glyph unicode="&#x1ef3;" horiz-adv-x="505" d="M96 -208l124 214l-109 510h87l58 -302l19 -114l58 114l160 302h83l-402 -724h-78zM247 729h101l81 -148h-66z" />
<glyph unicode="&#x2000;" horiz-adv-x="467" />
<glyph unicode="&#x2001;" horiz-adv-x="935" />
<glyph unicode="&#x2002;" horiz-adv-x="467" />
<glyph unicode="&#x2003;" horiz-adv-x="935" />
<glyph unicode="&#x2004;" horiz-adv-x="311" />
<glyph unicode="&#x2005;" horiz-adv-x="233" />
<glyph unicode="&#x2006;" horiz-adv-x="155" />
<glyph unicode="&#x2007;" horiz-adv-x="155" />
<glyph unicode="&#x2008;" horiz-adv-x="116" />
<glyph unicode="&#x2009;" horiz-adv-x="187" />
<glyph unicode="&#x200a;" horiz-adv-x="51" />
<glyph unicode="&#x2010;" horiz-adv-x="279" d="M42 243l12 67h240l-12 -67h-240z" />
<glyph unicode="&#x2011;" horiz-adv-x="279" d="M42 243l12 67h240l-12 -67h-240z" />
<glyph unicode="&#x2012;" horiz-adv-x="279" d="M42 243l12 67h240l-12 -67h-240z" />
<glyph unicode="&#x2013;" horiz-adv-x="500" d="M83 243l12 67h420l-12 -67h-420z" />
<glyph unicode="&#x2014;" horiz-adv-x="1000" d="M83 243l12 67h920l-12 -67h-920z" />
<glyph unicode="&#x2018;" horiz-adv-x="238" d="M148 610l129 250h73l-114 -250h-88z" />
<glyph unicode="&#x2019;" horiz-adv-x="238" d="M148 610l114 250h88l-129 -250h-73z" />
<glyph unicode="&#x201a;" horiz-adv-x="238" d="M12 -160l114 250h88l-129 -250h-73z" />
<glyph unicode="&#x201c;" horiz-adv-x="388" d="M148 610l129 250h73l-114 -250h-88zM298 610l129 250h73l-114 -250h-88z" />
<glyph unicode="&#x201d;" horiz-adv-x="388" d="M148 610l114 250h88l-129 -250h-73zM298 610l114 250h88l-129 -250h-73z" />
<glyph unicode="&#x201e;" horiz-adv-x="388" d="M12 -160l114 250h88l-129 -250h-73zM162 -160l114 250h88l-129 -250h-73z" />
<glyph unicode="&#x2020;" horiz-adv-x="482" d="M132 463l11 67h148l30 170h86l-30 -170h148l-11 -67h-149l-81 -463h-86l81 463h-147z" />
<glyph unicode="&#x2021;" horiz-adv-x="482" d="M80 170l12 67h148l39 226h-147l11 67h148l30 170h86l-30 -170h148l-11 -67h-149l-39 -226h148l-12 -67h-148l-30 -170h-86l30 170h-148z" />
<glyph unicode="&#x2022;" horiz-adv-x="336" d="M110 332q0 56 43 96t98 40q43 0 71 -28.5t28 -71.5q0 -57 -43 -96.5t-98 -39.5q-43 0 -71 28t-28 72z" />
<glyph unicode="&#x2026;" horiz-adv-x="820" d="M67 36q0 29 22 49t50 20q22 0 36 -14.5t14 -36.5q0 -29 -22 -49t-50 -20q-22 0 -36 14.5t-14 36.5zM357 36q0 29 22 49t50 20q22 0 36 -14.5t14 -36.5q0 -29 -22 -49t-50 -20q-22 0 -36 14.5t-14 36.5zM647 36q0 29 22 49t50 20q22 0 36 -14.5t14 -36.5q0 -29 -22 -49 t-50 -20q-22 0 -36 14.5t-14 36.5z" />
<glyph unicode="&#x202f;" horiz-adv-x="187" />
<glyph unicode="&#x2030;" horiz-adv-x="1382" d="M131 445q0 114 65 189t161 75q69 0 109 -47t40 -127q0 -115 -65.5 -189.5t-160.5 -74.5q-69 0 -109 47t-40 127zM209 444q0 -58 22 -86.5t59 -28.5q57 0 97 53.5t40 153.5q0 58 -22 86.5t-58 28.5q-58 0 -98 -53.5t-40 -153.5zM225 0l558 700h87l-558 -700h-87zM591 165 q0 114 65 189t161 75q69 0 109 -47t40 -127q0 -115 -65.5 -189.5t-160.5 -74.5q-69 0 -109 47t-40 127zM669 164q0 -58 22 -86.5t59 -28.5q57 0 97 53.5t40 153.5q0 58 -22 86.5t-58 28.5q-58 0 -98 -53.5t-40 -153.5zM999 165q0 114 65 189t161 75q69 0 109 -47t40 -127 q0 -115 -65.5 -189.5t-160.5 -74.5q-69 0 -109 47t-40 127zM1077 164q0 -58 22 -86.5t59 -28.5q57 0 97 53.5t40 153.5q0 58 -22 86.5t-58 28.5q-58 0 -98 -53.5t-40 -153.5z" />
<glyph unicode="&#x2039;" horiz-adv-x="340" d="M91 232l12 71l276 200l-17 -96l-195 -141l146 -140l-17 -94z" />
<glyph unicode="&#x203a;" horiz-adv-x="340" d="M55 32l17 96l195 141l-146 140l17 94l205 -200l-12 -71z" />
<glyph unicode="&#x2044;" horiz-adv-x="562" d="M20 0l558 700h87l-558 -700h-87z" />
<glyph unicode="&#x205f;" horiz-adv-x="233" />
<glyph unicode="&#x20a1;" horiz-adv-x="668" d="M19 -120l114 231q-31 63 -31 156q0 181 92 304t237 141l53 108h83l-53 -107q37 -5 68 -18l62 125h83l-82 -167q61 -61 58 -173h-99q1 42 -8 75l-249 -503h11q66 0 119.5 41.5t80.5 126.5h99q-38 -116 -122.5 -175.5t-188.5 -59.5q-6 0 -16 0.5t-15 0.5l-53 -106h-83 l62 125q-33 13 -59 38l-80 -163h-83zM185 267q0 -17 2 -47l206 417q-89 -29 -148.5 -124t-59.5 -246zM220 119q20 -32 53 -49l274 554q-28 20 -66 23z" />
<glyph unicode="&#x20a5;" horiz-adv-x="920" d="M80 0l91 516h80l-12 -67q94 82 192 82q112 0 133 -87q76 68 166 83l97 109h89l-98 -110q110 -26 86 -164l-64 -362h-80l60 342q19 108 -59 120l-224 -250l-37 -212h-80l18 100l-188 -210h-89l298 334l21 118q11 62 -9 92t-75 30q-41 0 -87.5 -21t-79.5 -50l-69 -393h-80z M559 336l99 111q-51 -20 -90 -56q-2 -20 -4 -29z" />
<glyph unicode="&#x20a6;" horiz-adv-x="723" d="M49 220l12 67h99l24 133h-100l12 67h100l37 213h98l84 -213h206l37 213h78l-37 -213h100l-12 -67h-100l-24 -133h101l-12 -67h-100l-39 -220h-98l-87 220h-201l-39 -220h-78l39 220h-100zM238 287h164l-52 133h-88zM273 487h50l-35 90zM442 420l52 -133h91l24 133h-167z M521 220l38 -97l15 97h-53z" />
<glyph unicode="&#x20a8;" horiz-adv-x="587" d="M125 483l12 67h317q-17 83 -131 83h-171l11 67h111h376l-11 -67h-138q35 -34 44 -83h79l-12 -67h-68q-14 -100 -95.5 -151.5t-188.5 -51.5h-3l242 -280h-110l-236 280l12 67h107q162 0 182 136h-329z" />
<glyph unicode="&#x20a9;" horiz-adv-x="930" d="M49 220l12 67h139l-12 133h-104l12 67h86l-19 213h89l12 -213h188l93 213h95l19 -213h183l83 213h88l-89 -213h82l-12 -67h-98l-56 -133h131l-12 -67h-147l-92 -220h-90l-18 220h-199l-97 -220h-90l-20 220h-157zM268 420l8 -133h89l58 133h-155zM280 220l8 -112l48 112 h-56zM443 287h163l-11 133h-94zM531 487h58l-11 107zM665 420l11 -133h88l52 133h-151zM682 220l10 -116l46 116h-56z" />
<glyph unicode="&#x20aa;" horiz-adv-x="727" d="M90 0l123 700h182q96 0 145 -42.5t49 -145.5q0 -100 -77 -315h-73q40 119 57 183.5t17 114.5q0 71 -33.5 104.5t-105.5 33.5h-94l-23 -131h160l-77 -435h94q70 0 117.5 32.5t74 99.5t37.5 155t11 214q0 78 -2 132h73q3 -39 3 -134q0 -157 -22 -268t-64.5 -175.5 t-98.5 -93.5t-131 -29h-182l87 492h-82l-87 -492h-78z" />
<glyph unicode="&#x20ab;" horiz-adv-x="569" d="M50 0l12 67h499l-12 -67h-499zM106 304q0 66 23 119t60 84t80.5 47.5t87.5 16.5q42 0 74.5 -17t47.5 -44l18 102h-130l11 63h130l12 69h80l-12 -69h80l-11 -63h-80l-83 -472h-80l10 58v-1q-67 -72 -161 -72q-65 0 -111 46t-46 133zM193 311q0 -60 27 -89.5t68 -29.5 q77 0 146 61l39 223l-5 -28q-44 56 -120 56q-59 0 -107 -49t-48 -144z" />
<glyph unicode="&#x20ac;" horiz-adv-x="668" d="M58 214l12 67h71q3 72 18 133h-66l12 67h76q43 109 124 171.5t185 62.5q97 0 156.5 -59.5t56.5 -175.5h-99q3 85 -32.5 126.5t-93.5 41.5q-64 0 -119 -43t-88 -124h214l-12 -67h-223q-14 -61 -17 -133h217l-12 -67h-203q13 -162 138 -162q58 0 108 41.5t77 126.5h99 q-38 -116 -118.5 -175.5t-177.5 -59.5q-98 0 -153.5 60.5t-64.5 168.5h-85z" />
<glyph unicode="&#x20ad;" horiz-adv-x="582" d="M59 334l12 67h89l53 299h86l-53 -299h3l287 299h101l-296 -299h250l-12 -67h-247l220 -334h-107l-210 334l-59 -334h-86l59 334h-90z" />
<glyph unicode="&#x20ae;" horiz-adv-x="542" d="M122 140l14 75l141 60l16 94l-141 -60l14 75l141 60l33 189h-198l11 67h482l-11 -67h-198l-26 -150l140 60l-13 -75l-141 -60l-16 -94l140 60l-14 -75l-140 -59l-42 -240h-86l35 200z" />
<glyph unicode="&#x20b1;" horiz-adv-x="608" d="M79 446l11 67h90l33 187h192q90 0 151 -47.5t61 -136.5v-3h71l-11 -67h-69q-24 -89 -104 -137.5t-176 -48.5h-106l-46 -260h-86l78 446h-89zM234 327h106q66 0 113 30t64 89h-262zM267 513h259q-1 60 -36 90t-96 30h-106z" />
<glyph unicode="&#x20b4;" horiz-adv-x="619" d="M93 141q0 111 107 173h-95l12 67h244q46 17 73.5 29t58 32t45 46t14.5 60q0 100 -123 100q-139 0 -173 -123h-93q20 88 92.5 139t185.5 51q97 0 148.5 -42.5t51.5 -113.5q0 -114 -111 -178h107l-12 -67h-256q-45 -16 -72.5 -28t-57.5 -31.5t-44 -45t-14 -57.5 q0 -100 124 -100q149 0 183 123h93q-20 -87 -97 -138.5t-191 -51.5q-96 0 -148 43t-52 113z" />
<glyph unicode="&#x20b5;" horiz-adv-x="668" d="M102 267q0 181 92 304.5t237 140.5l19 108h78l-19 -107q91 -9 144 -68t50 -165h-99q4 143 -107 165l-104 -590q118 21 165 165h99q-35 -106 -108.5 -165t-167.5 -68l-19 -107h-78l19 108q-98 13 -149.5 87t-51.5 192zM195 267q0 -180 120 -210l104 587q-96 -20 -160 -117 t-64 -260z" />
<glyph unicode="&#x2113;" horiz-adv-x="460" d="M20 186v57q54 32 90 58v128q0 138 42 212t113 74q48 0 81.5 -29.5t33.5 -101.5q0 -67 -53 -144t-137 -146v-160q0 -86 72 -86q35 0 88 17v-57q-46 -23 -113 -23q-56 0 -91.5 33.5t-35.5 95.5v122q-44 -29 -90 -50zM190 367q110 108 110 217q0 72 -38 72 q-35 0 -53.5 -62.5t-18.5 -164.5v-62z" />
<glyph unicode="&#x2117;" horiz-adv-x="830" d="M50 350q0 152 105 258.5t260 106.5t260 -106.5t105 -258.5t-105 -258.5t-260 -106.5t-260 106.5t-105 258.5zM117 350q0 -127 86.5 -216t211.5 -89t211.5 89t86.5 216t-86.5 216t-211.5 89t-211.5 -89t-86.5 -216zM297 143v413h131q62 0 107 -33.5t45 -96.5 q0 -62 -45 -96t-107 -34h-68v-153h-63zM360 347h68q41 0 65 20.5t24 58.5q0 39 -23.5 59t-65.5 20h-68v-158z" />
<glyph unicode="&#x2120;" horiz-adv-x="700" d="M50 489h58q6 -48 62 -48q22 0 39 10.5t17 33.5q0 15 -11 24t-22 12.5t-36 8.5q-21 4 -29.5 6t-26 9t-25.5 15.5t-15 24.5t-7 37q0 39 30.5 62.5t79.5 23.5q51 0 82 -23.5t32 -66.5h-58q-5 42 -56 42q-54 0 -54 -35q0 -15 11 -24t22 -12.5t36 -8.5q21 -4 29.5 -6t26 -9 t25.5 -15.5t15 -24.5t7 -37q0 -43 -32 -69t-80 -26q-52 0 -85 24.5t-35 71.5zM336 401v299h58l102 -225l102 225h52v-299h-56v108l2 78l-84 -186h-36l-89 195l1 -87v-108h-52z" />
<glyph unicode="&#x2122;" horiz-adv-x="679" d="M50 654v46h219v-46h-83v-253h-55v253h-81zM315 401v299h58l102 -225l102 225h52v-299h-56v108l2 78l-84 -186h-36l-89 195l1 -87v-108h-52z" />
<glyph unicode="&#x2126;" horiz-adv-x="740" d="M40 0l12 67h178q-51 40 -84.5 111.5t-33.5 151.5q0 159 110 272t274 113q125 0 196 -77.5t71 -199.5q0 -115 -65 -216.5t-154 -154.5h168l-12 -67h-250l12 67q87 57 147 149t60 216q0 105 -51 160.5t-134 55.5q-117 0 -199.5 -89.5t-82.5 -248.5q0 -80 28.5 -143 t71.5 -100l-12 -67h-250z" />
<glyph unicode="&#x212e;" horiz-adv-x="774" d="M50 321q0 144 98 241t239 97t239 -97t98 -241h-523v-239q79 -65 186 -65q75 0 138 34t104 93h47q-45 -74 -121.5 -117t-167.5 -43q-141 0 -239 96.5t-98 240.5zM201 354h373l-1 206q-80 66 -186 66t-186 -66v-206z" />
<glyph unicode="&#x2153;" horiz-adv-x="854" d="M119 0l558 700h87l-558 -700h-87zM151 580l12 67l112 53h74l-74 -420h-74l62 353zM497 111h78q-1 -33 17.5 -47.5t59.5 -14.5q98 0 98 81q0 59 -87 59h-55l10 58h55q46 0 72 19.5t26 56.5q0 48 -66 48q-36 0 -57.5 -14.5t-33.5 -47.5h-79q15 56 63.5 88t116.5 32 q61 0 96.5 -27t35.5 -74q0 -38 -27 -67.5t-75 -40.5q42 -6 61.5 -30t19.5 -56q0 -62 -56 -102.5t-128 -40.5q-76 0 -114.5 32t-30.5 88z" />
<glyph unicode="&#x2154;" horiz-adv-x="961" d="M108 280l9 56q27 21 65 49t58.5 43.5t47 37t40.5 35.5t27.5 31t19 32.5t5.5 32.5q0 54 -62 54q-66 0 -90 -77h-78q14 64 61.5 99.5t116.5 35.5q58 0 93.5 -27.5t35.5 -79.5q0 -61 -43 -106.5t-175 -144.5q-13 -10 -20 -15h194l-9 -56h-296zM226 0l558 700h87l-558 -700 h-87zM604 111h78q-1 -33 17.5 -47.5t59.5 -14.5q98 0 98 81q0 59 -87 59h-55l10 58h55q46 0 72 19.5t26 56.5q0 48 -66 48q-36 0 -57.5 -14.5t-33.5 -47.5h-79q15 56 63.5 88t116.5 32q61 0 96.5 -27t35.5 -74q0 -38 -27 -67.5t-75 -40.5q42 -6 61.5 -30t19.5 -56 q0 -62 -56 -102.5t-128 -40.5q-76 0 -114.5 32t-30.5 88z" />
<glyph unicode="&#x215b;" horiz-adv-x="854" d="M119 0l558 700h87l-558 -700h-87zM151 580l12 67l112 53h74l-74 -420h-74l62 353zM491 93q0 47 32 80.5t81 44.5q-64 21 -64 81q0 59 49.5 94.5t124.5 35.5q61 0 97.5 -26.5t36.5 -71.5q0 -84 -98 -113q34 -8 54.5 -32.5t20.5 -57.5q0 -68 -53.5 -102.5t-134.5 -34.5 q-65 0 -105.5 25.5t-40.5 76.5zM570 107q0 -58 77 -58q42 0 72 19t30 63q0 56 -77 56q-48 0 -75 -20.5t-27 -59.5zM616 296q0 -51 66 -51q43 0 65 19.5t22 54.5q0 52 -65 52q-37 0 -62.5 -18t-25.5 -57z" />
<glyph unicode="&#x215c;" horiz-adv-x="947" d="M119 391h78q-1 -33 17.5 -47.5t59.5 -14.5q98 0 98 81q0 59 -87 59h-55l10 58h55q46 0 72 19.5t26 56.5q0 48 -66 48q-36 0 -57.5 -14.5t-33.5 -47.5h-79q15 56 63.5 88t116.5 32q61 0 96.5 -27t35.5 -74q0 -38 -27 -67.5t-75 -40.5q42 -6 61.5 -30t19.5 -56 q0 -62 -56 -102.5t-128 -40.5q-76 0 -114.5 32t-30.5 88zM212 0l558 700h87l-558 -700h-87zM584 93q0 47 32 80.5t81 44.5q-64 21 -64 81q0 59 49.5 94.5t124.5 35.5q61 0 97.5 -26.5t36.5 -71.5q0 -84 -98 -113q34 -8 54.5 -32.5t20.5 -57.5q0 -68 -53.5 -102.5 t-134.5 -34.5q-65 0 -105.5 25.5t-40.5 76.5zM663 107q0 -58 77 -58q42 0 72 19t30 63q0 56 -77 56q-48 0 -75 -20.5t-27 -59.5zM709 296q0 -51 66 -51q43 0 65 19.5t22 54.5q0 52 -65 52q-37 0 -62.5 -18t-25.5 -57z" />
<glyph unicode="&#x215d;" horiz-adv-x="927" d="M117 379h78q0 -50 63 -50q47 0 74 27.5t27 82.5q0 68 -64 68q-52 0 -83 -34h-67l40 227h269l-11 -58h-202l-19 -109q38 32 99 32q51 0 83.5 -31.5t32.5 -89.5q0 -80 -57.5 -126.5t-131.5 -46.5q-70 0 -104 28t-27 80zM192 0l558 700h87l-558 -700h-87zM564 93 q0 47 32 80.5t81 44.5q-64 21 -64 81q0 59 49.5 94.5t124.5 35.5q61 0 97.5 -26.5t36.5 -71.5q0 -84 -98 -113q34 -8 54.5 -32.5t20.5 -57.5q0 -68 -53.5 -102.5t-134.5 -34.5q-65 0 -105.5 25.5t-40.5 76.5zM643 107q0 -58 77 -58q42 0 72 19t30 63q0 56 -77 56 q-48 0 -75 -20.5t-27 -59.5zM689 296q0 -51 66 -51q43 0 65 19.5t22 54.5q0 52 -65 52q-37 0 -62.5 -18t-25.5 -57z" />
<glyph unicode="&#x215e;" horiz-adv-x="815" d="M80 0l558 700h87l-558 -700h-87zM133 280l230 362h-201l11 58h274l-11 -58l-227 -362h-76zM452 93q0 47 32 80.5t81 44.5q-64 21 -64 81q0 59 49.5 94.5t124.5 35.5q61 0 97.5 -26.5t36.5 -71.5q0 -84 -98 -113q34 -8 54.5 -32.5t20.5 -57.5q0 -68 -53.5 -102.5 t-134.5 -34.5q-65 0 -105.5 25.5t-40.5 76.5zM531 107q0 -58 77 -58q42 0 72 19t30 63q0 56 -77 56q-48 0 -75 -20.5t-27 -59.5zM577 296q0 -51 66 -51q43 0 65 19.5t22 54.5q0 52 -65 52q-37 0 -62.5 -18t-25.5 -57z" />
<glyph unicode="&#x2190;" horiz-adv-x="735" d="M88 273l350 297l41 -50l-251 -214h521l-12 -67h-530l179 -218l-53 -45z" />
<glyph unicode="&#x2191;" horiz-adv-x="674" d="M93 303l350 297l244 -297l-54 -46l-179 216l-93 -528h-67l92 522l-252 -214z" />
<glyph unicode="&#x2192;" horiz-adv-x="735" d="M82 239l12 67h530l-179 218l53 45l245 -297l-350 -297l-41 50l250 214h-520z" />
<glyph unicode="&#x2193;" horiz-adv-x="674" d="M84 242l54 46l178 -216l94 528h67l-93 -522l253 214l41 -50l-350 -297z" />
<glyph unicode="&#x2196;" horiz-adv-x="605" d="M97 96l74 420h420l-12 -67h-308l306 -372l-52 -47l-307 374l-54 -308h-67z" />
<glyph unicode="&#x2197;" horiz-adv-x="605" d="M52 77l436 372h-304l12 67h420l-74 -420h-67l53 303l-436 -371z" />
<glyph unicode="&#x2198;" horiz-adv-x="605" d="M110 30l12 67h308l-305 372l53 45l305 -371l54 307h67l-74 -420h-420z" />
<glyph unicode="&#x2199;" horiz-adv-x="605" d="M85 30l74 420h67l-54 -305l437 373l39 -51l-435 -370h304l-12 -67h-420z" />
<glyph unicode="&#x2202;" horiz-adv-x="620" d="M50 182q0 126 72.5 198.5t187.5 72.5q53 0 99 -24t72 -62q3 43 3 94q0 119 -40.5 179t-102.5 60q-97 0 -135 -101h-88q21 74 81 117t153 43q98 0 158 -84.5t60 -229.5q0 -215 -82.5 -337.5t-235.5 -122.5q-87 0 -144.5 54t-57.5 143zM136 184q0 -64 35.5 -102t92.5 -38 q80 0 134 62.5t74 189.5q-21 40 -64.5 65t-97.5 25q-82 0 -128 -54.5t-46 -147.5z" />
<glyph unicode="&#x2205;" horiz-adv-x="662" d="M110 322q0 136 100.5 231t234.5 95q68 0 120 -29l58 71l48 -38l-57 -70q67 -67 67 -172q0 -136 -100.5 -231t-234.5 -95q-65 0 -118 28l-58 -71l-48 39l56 69q-68 66 -68 173zM178 331q0 -77 46 -126l295 358q-37 18 -86 18q-104 0 -179.5 -71t-75.5 -179zM275 168 q37 -17 83 -17q104 0 179.5 71t75.5 179q0 77 -45 125z" />
<glyph unicode="&#x2206;" horiz-adv-x="618" d="M30 0l12 66l338 634h90l130 -634l-12 -66h-558zM132 66h379l-81 435l-20 114l-57 -114z" />
<glyph unicode="&#x220f;" horiz-adv-x="723" d="M90 0l123 700h543l-123 -700h-86l112 633h-371l-112 -633h-86z" />
<glyph unicode="&#x2211;" horiz-adv-x="565" d="M90 0l12 67l277 299l-177 267l11 67h425l-11 -67h-333l160 -241l-12 -67l-241 -258h326l-12 -67h-425z" />
<glyph unicode="&#x2212;" horiz-adv-x="560" d="M109 332l11 67h460l-11 -67h-460z" />
<glyph unicode="&#x221a;" horiz-adv-x="652" d="M121 458l10 58h167l54 -313l17 -114l56 114l247 497h83l-364 -700h-77l-88 458h-105z" />
<glyph unicode="&#x221e;" horiz-adv-x="783" d="M109 324q0 85 60.5 145.5t140.5 60.5q51 0 86.5 -31.5t66.5 -87.5q52 56 98.5 87.5t97.5 31.5q62 0 100.5 -42t38.5 -106q0 -85 -60 -145.5t-141 -60.5q-51 0 -86.5 31.5t-67.5 87.5q-108 -119 -195 -119q-62 0 -100.5 42t-38.5 106zM177 333q0 -41 22.5 -67.5 t59.5 -26.5q35 0 70 29t84 85q-14 28 -24.5 44.5t-25 34.5t-30.5 26.5t-34 8.5q-50 0 -86 -39.5t-36 -94.5zM494 353q20 -38 33 -58.5t35 -38t46 -17.5q50 0 86 39.5t36 94.5q0 41 -22.5 67.5t-59.5 26.5q-35 0 -70 -28.5t-84 -85.5z" />
<glyph unicode="&#x222b;" horiz-adv-x="414" d="M21 -223l11 67q44 0 79.5 30t47.5 97l95 538q17 96 80.5 151t145.5 55l-12 -67q-43 0 -78.5 -30t-47.5 -97l-95 -538q-17 -96 -80.5 -151t-145.5 -55z" />
<glyph unicode="&#x2248;" horiz-adv-x="560" d="M70 226q81 118 172 118q32 0 60.5 -14t45.5 -31t39 -31t43 -14q45 0 103 83l51 -32q-81 -118 -172 -118q-32 0 -60.5 14t-45.5 31t-39 31t-43 14q-46 0 -104 -83zM105 426q81 118 172 118q32 0 60.5 -14t45.5 -31t39 -31t43 -14q46 0 104 83l50 -32q-81 -118 -172 -118 q-32 0 -60.5 14t-45.5 31t-39 31t-43 14q-46 0 -104 -83z" />
<glyph unicode="&#x2260;" horiz-adv-x="560" d="M91 232l12 67h168l74 133h-219l12 67h244l98 176h72l-98 -176h144l-12 -67h-169l-74 -133h220l-12 -67h-245l-98 -177h-72l98 177h-143z" />
<glyph unicode="&#x2264;" horiz-adv-x="560" d="M50 0l12 67h460l-12 -67h-460zM109 332l12 71l495 200l-12 -72l-408 -165l350 -164l-13 -70z" />
<glyph unicode="&#x2265;" horiz-adv-x="560" d="M50 0l12 67h460l-12 -67h-460zM74 132l12 72l408 165l-350 164l13 70l424 -200l-12 -71z" />
<glyph unicode="&#x25ca;" horiz-adv-x="578" d="M112 350l261 350h78l139 -350l-262 -350h-78zM186 350l111 -282l219 282l-112 281z" />
<glyph unicode="&#x25fc;" horiz-adv-x="515" d="M0 0v515h515v-515h-515z" />
<glyph unicode="&#x27f5;" horiz-adv-x="1356" d="M88 273l350 297l41 -50l-251 -214h1142l-12 -67h-1151l179 -218l-53 -45z" />
<glyph unicode="&#x27f6;" horiz-adv-x="1356" d="M82 239l12 67h1151l-179 218l53 45l245 -297l-350 -297l-41 50l250 214h-1141z" />
<glyph unicode="&#x301a;" horiz-adv-x="344" d="M98 -125l167 950h204l-10 -57h-70l-147 -836h70l-10 -57h-204zM158 -68h34l147 836h-34z" />
<glyph unicode="&#x301b;" horiz-adv-x="344" d="M-2 -125l10 57h70l147 836h-70l10 57h204l-167 -950h-204zM128 -68h34l147 836h-34z" />
<glyph horiz-adv-x="740" d="M103 276q0 192 111 315.5t282 123.5q124 0 194 -79t70 -212q0 -192 -111 -315.5t-282 -123.5q-124 0 -194 79t-70 212zM196 276q0 -111 50.5 -167.5t132.5 -56.5q121 0 204.5 96.5t83.5 275.5q0 112 -50 168t-133 56q-120 0 -204 -96.5t-84 -275.5zM217 -130l12 67h360 l-12 -67h-360z" />
<glyph horiz-adv-x="546" d="M69 99q0 33 14.5 64t44.5 59.5t87 46t133 17.5q35 0 88 -5l11 64q22 127 -83 127q-117 0 -145 -126h-87q16 87 82.5 136t160.5 49q37 0 67 -8.5t53.5 -27.5t33 -55t0.5 -85l-63 -355h-80l12 67q-98 -82 -194 -82q-62 0 -98.5 31t-36.5 83zM155 117q0 -67 95 -67 q37 0 80.5 21.5t77.5 51.5l21 120l-3 -16q-40 4 -81 4q-190 0 -190 -114z" />
<glyph horiz-adv-x="573" d="M16 -89q0 41 26 81.5t67 70.5q-21 21 -21 58q0 58 65 121q-43 38 -43 98q0 89 72.5 140t178.5 51q53 0 95 -15h178l-10 -58h-91q19 -32 19 -70q0 -89 -72 -140t-178 -51q-64 0 -113 22q-22 -37 -22 -65q0 -39 46 -39h158q70 0 111.5 -32t41.5 -85q0 -90 -93 -155.5 t-210 -65.5q-101 0 -153 36t-52 98zM100 -60q0 -105 146 -105q82 0 135 37.5t53 99.5q0 36 -24.5 53.5t-60.5 17.5h-176q-15 0 -27 3q-46 -49 -46 -106zM197 343q0 -89 115 -89q70 0 112 32t42 100q0 88 -115 88q-154 0 -154 -131z" />
<glyph horiz-adv-x="240" d="M-106 -207l10 57q33 -11 69 -11q78 0 93 82l105 595h80l-105 -595q-13 -71 -60.5 -107.5t-123.5 -36.5q-39 0 -68 16zM180 653q0 24 20.5 43t45.5 19q20 0 33.5 -14t13.5 -34q0 -24 -20.5 -43t-45.5 -19q-20 0 -33.5 14t-13.5 34z" />
<glyph horiz-adv-x="360" d="M101 458l10 58h120l25 144h80l-25 -144h120l-10 -58h-121l-80 -458h-80l80 458h-119z" />
<glyph horiz-adv-x="480" d="M80 0l91 516h80l-91 -516h-80zM134 -207l10 57q33 -11 69 -11q78 0 93 82l105 595h80l-105 -595q-13 -71 -60.5 -107.5t-123.5 -36.5q-39 0 -68 16zM180 653q0 24 20.5 43t45.5 19q20 0 33.5 -14t13.5 -34q0 -24 -20.5 -43t-45.5 -19q-20 0 -33.5 14t-13.5 34zM420 653 q0 24 20.5 43t45.5 19q20 0 33.5 -14t13.5 -34q0 -24 -20.5 -43t-45.5 -19q-20 0 -33.5 14t-13.5 34z" />
<glyph horiz-adv-x="546" d="M69 99q0 33 14.5 64t44.5 59.5t87 46t133 17.5q35 0 88 -5l11 64q22 127 -83 127q-117 0 -145 -126h-87q16 87 82.5 136t160.5 49q37 0 67 -8.5t53.5 -27.5t33 -55t0.5 -85l-63 -355h-80l12 67q-98 -82 -194 -82q-62 0 -98.5 31t-36.5 83zM155 117q0 -67 95 -67 q37 0 80.5 21.5t77.5 51.5l21 120l-3 -16q-40 4 -81 4q-190 0 -190 -114zM296 581l125 148h111l-162 -148h-74z" />
<glyph horiz-adv-x="546" d="M69 99q0 33 14.5 64t44.5 59.5t87 46t133 17.5q35 0 88 -5l11 64q22 127 -83 127q-117 0 -145 -126h-87q16 87 82.5 136t160.5 49q37 0 67 -8.5t53.5 -27.5t33 -55t0.5 -85l-63 -355h-80l12 67q-98 -82 -194 -82q-62 0 -98.5 31t-36.5 83zM155 117q0 -67 95 -67 q37 0 80.5 21.5t77.5 51.5l21 120l-3 -16q-40 4 -81 4q-190 0 -190 -114zM270 729h56q-8 -40 8 -64.5t52 -24.5q71 0 88 89h60q-14 -76 -57 -116t-103 -40t-89 40t-15 116z" />
<glyph horiz-adv-x="546" d="M69 99q0 33 14.5 64t44.5 59.5t87 46t133 17.5q35 0 88 -5l11 64q22 127 -83 127q-117 0 -145 -126h-87q16 87 82.5 136t160.5 49q37 0 67 -8.5t53.5 -27.5t33 -55t0.5 -85l-63 -355h-80l12 67q-98 -82 -194 -82q-62 0 -98.5 31t-36.5 83zM155 117q0 -67 95 -67 q37 0 80.5 21.5t77.5 51.5l21 120l-3 -16q-40 4 -81 4q-190 0 -190 -114zM221 581l134 148h94l80 -148h-68l-68 90l-100 -90h-72z" />
<glyph horiz-adv-x="546" d="M69 99q0 33 14.5 64t44.5 59.5t87 46t133 17.5q35 0 88 -5l11 64q22 127 -83 127q-117 0 -145 -126h-87q16 87 82.5 136t160.5 49q37 0 67 -8.5t53.5 -27.5t33 -55t0.5 -85l-63 -355h-80l12 67q-98 -82 -194 -82q-62 0 -98.5 31t-36.5 83zM155 117q0 -67 95 -67 q37 0 80.5 21.5t77.5 51.5l21 120l-3 -16q-40 4 -81 4q-190 0 -190 -114zM242 653q0 24 20.5 43t45.5 19q20 0 33.5 -14t13.5 -34q0 -24 -20.5 -43t-45.5 -19q-20 0 -33.5 14t-13.5 34zM424 653q0 24 20.5 43t45.5 19q20 0 33.5 -14t13.5 -34q0 -24 -20.5 -43t-45.5 -19 q-20 0 -33.5 14t-13.5 34z" />
<glyph horiz-adv-x="546" d="M69 99q0 33 14.5 64t44.5 59.5t87 46t133 17.5q35 0 88 -5l11 64q22 127 -83 127q-117 0 -145 -126h-87q16 87 82.5 136t160.5 49q37 0 67 -8.5t53.5 -27.5t33 -55t0.5 -85l-63 -355h-80l12 67q-98 -82 -194 -82q-62 0 -98.5 31t-36.5 83zM155 117q0 -67 95 -67 q37 0 80.5 21.5t77.5 51.5l21 120l-3 -16q-40 4 -81 4q-190 0 -190 -114zM273 729h101l81 -148h-66z" />
<glyph horiz-adv-x="546" d="M69 99q0 33 14.5 64t44.5 59.5t87 46t133 17.5q35 0 88 -5l11 64q22 127 -83 127q-117 0 -145 -126h-87q16 87 82.5 136t160.5 49q37 0 67 -8.5t53.5 -27.5t33 -55t0.5 -85l-63 -355h-80l12 67q-98 -82 -194 -82q-62 0 -98.5 31t-36.5 83zM155 117q0 -67 95 -67 q37 0 80.5 21.5t77.5 51.5l21 120l-3 -16q-40 4 -81 4q-190 0 -190 -114zM236 612l11 63h290l-11 -63h-290z" />
<glyph horiz-adv-x="546" d="M69 99q0 33 14.5 64t44.5 59.5t87 46t133 17.5q35 0 88 -5l11 64q22 127 -83 127q-117 0 -145 -126h-87q16 87 82.5 136t160.5 49q37 0 67 -8.5t53.5 -27.5t33 -55t0.5 -85l-63 -355q-76 -35 -113.5 -70.5t-37.5 -78.5q0 -20 12.5 -31.5t31.5 -11.5q33 0 77 23l-9 -55 q-48 -24 -96 -24q-40 0 -63.5 23t-23.5 60q0 94 142 165l12 67q-98 -82 -194 -82q-62 0 -98.5 31t-36.5 83zM155 117q0 -67 95 -67q37 0 80.5 21.5t77.5 51.5l21 120l-3 -16q-40 4 -81 4q-190 0 -190 -114z" />
<glyph horiz-adv-x="546" d="M69 99q0 33 14.5 64t44.5 59.5t87 46t133 17.5q35 0 88 -5l11 64q22 127 -83 127q-117 0 -145 -126h-87q16 87 82.5 136t160.5 49q37 0 67 -8.5t53.5 -27.5t33 -55t0.5 -85l-63 -355h-80l12 67q-98 -82 -194 -82q-62 0 -98.5 31t-36.5 83zM155 117q0 -67 95 -67 q37 0 80.5 21.5t77.5 51.5l21 120l-3 -16q-40 4 -81 4q-190 0 -190 -114zM279 640q0 49 37 79.5t89 30.5q41 0 67 -21.5t26 -58.5q0 -49 -37 -79.5t-89 -30.5q-41 0 -67 21.5t-26 58.5zM339 645q0 -39 41 -39q26 0 42 16t16 43q0 39 -41 39q-26 0 -42 -16t-16 -43z" />
<glyph horiz-adv-x="546" d="M69 99q0 33 14.5 64t44.5 59.5t87 46t133 17.5q35 0 88 -5l11 64q22 127 -83 127q-117 0 -145 -126h-87q16 87 82.5 136t160.5 49q37 0 67 -8.5t53.5 -27.5t33 -55t0.5 -85l-63 -355h-80l12 67q-98 -82 -194 -82q-62 0 -98.5 31t-36.5 83zM155 117q0 -67 95 -67 q37 0 80.5 21.5t77.5 51.5l21 120l-3 -16q-40 4 -81 4q-190 0 -190 -114zM219 618q26 43 60.5 66t62.5 23t64 -23.5t49 -23.5q31 0 61 43l41 -23q-25 -43 -59.5 -66t-62.5 -23t-64.5 23.5t-50.5 23.5q-29 0 -60 -43z" />
<glyph horiz-adv-x="573" d="M16 -89q0 41 26 81.5t67 70.5q-21 21 -21 58q0 58 65 121q-43 38 -43 98q0 89 72.5 140t178.5 51q53 0 95 -15h178l-10 -58h-91q19 -32 19 -70q0 -89 -72 -140t-178 -51q-64 0 -113 22q-22 -37 -22 -65q0 -39 46 -39h158q70 0 111.5 -32t41.5 -85q0 -90 -93 -155.5 t-210 -65.5q-101 0 -153 36t-52 98zM100 -60q0 -105 146 -105q82 0 135 37.5t53 99.5q0 36 -24.5 53.5t-60.5 17.5h-176q-15 0 -27 3q-46 -49 -46 -106zM197 343q0 -89 115 -89q70 0 112 32t42 100q0 88 -115 88q-154 0 -154 -131zM268 729h56q-8 -40 8 -64.5t52 -24.5 q71 0 88 89h60q-14 -76 -57 -116t-103 -40t-89 40t-15 116z" />
<glyph horiz-adv-x="573" d="M16 -89q0 41 26 81.5t67 70.5q-21 21 -21 58q0 58 65 121q-43 38 -43 98q0 89 72.5 140t178.5 51q53 0 95 -15h178l-10 -58h-91q19 -32 19 -70q0 -89 -72 -140t-178 -51q-64 0 -113 22q-22 -37 -22 -65q0 -39 46 -39h158q70 0 111.5 -32t41.5 -85q0 -90 -93 -155.5 t-210 -65.5q-101 0 -153 36t-52 98zM100 -60q0 -105 146 -105q82 0 135 37.5t53 99.5q0 36 -24.5 53.5t-60.5 17.5h-176q-15 0 -27 3q-46 -49 -46 -106zM197 343q0 -89 115 -89q70 0 112 32t42 100q0 88 -115 88q-154 0 -154 -131zM219 581l134 148h94l80 -148h-68l-68 90 l-100 -90h-72z" />
<glyph horiz-adv-x="573" d="M16 -89q0 41 26 81.5t67 70.5q-21 21 -21 58q0 58 65 121q-43 38 -43 98q0 89 72.5 140t178.5 51q53 0 95 -15h178l-10 -58h-91q19 -32 19 -70q0 -89 -72 -140t-178 -51q-64 0 -113 22q-22 -37 -22 -65q0 -39 46 -39h158q70 0 111.5 -32t41.5 -85q0 -90 -93 -155.5 t-210 -65.5q-101 0 -153 36t-52 98zM100 -60q0 -105 146 -105q82 0 135 37.5t53 99.5q0 36 -24.5 53.5t-60.5 17.5h-176q-15 0 -27 3q-46 -49 -46 -106zM197 343q0 -89 115 -89q70 0 112 32t42 100q0 88 -115 88q-154 0 -154 -131zM319 585l71 180h60l-52 -180h-79z" />
<glyph horiz-adv-x="573" d="M16 -89q0 41 26 81.5t67 70.5q-21 21 -21 58q0 58 65 121q-43 38 -43 98q0 89 72.5 140t178.5 51q53 0 95 -15h178l-10 -58h-91q19 -32 19 -70q0 -89 -72 -140t-178 -51q-64 0 -113 22q-22 -37 -22 -65q0 -39 46 -39h158q70 0 111.5 -32t41.5 -85q0 -90 -93 -155.5 t-210 -65.5q-101 0 -153 36t-52 98zM100 -60q0 -105 146 -105q82 0 135 37.5t53 99.5q0 36 -24.5 53.5t-60.5 17.5h-176q-15 0 -27 3q-46 -49 -46 -106zM197 343q0 -89 115 -89q70 0 112 32t42 100q0 88 -115 88q-154 0 -154 -131zM331 653q0 24 20.5 43t45.5 19 q20 0 33.5 -14t13.5 -34q0 -24 -20.5 -43t-45.5 -19q-20 0 -33.5 14t-13.5 34z" />
<glyph horiz-adv-x="240" d="M80 0l91 516h80l-91 -516h-80zM180 653q0 24 20.5 43t45.5 19q20 0 33.5 -14t13.5 -34q0 -24 -20.5 -43t-45.5 -19q-20 0 -33.5 14t-13.5 34z" />
<glyph horiz-adv-x="240" d="M-106 -207l10 57q33 -11 69 -11q78 0 93 82l105 595h80l-105 -595q-13 -71 -60.5 -107.5t-123.5 -36.5q-39 0 -68 16zM68 581l134 148h94l80 -148h-68l-68 90l-100 -90h-72z" />
<glyph horiz-adv-x="360" d="M88 275l12 63h99l21 120h-119l10 58h120l25 144h80l-25 -144h120l-10 -58h-121l-21 -120h101l-12 -63h-100l-48 -275h-80l48 275h-100z" />
<glyph horiz-adv-x="360" d="M101 458l10 58h120l25 144h80l-25 -144h120l-10 -58h-121l-80 -458h-80l80 458h-119zM373 583l39 220h77l-58 -220h-58z" />
<glyph horiz-adv-x="360" d="M52 -234l9 51q25 -13 62 -13q25 0 46 13.5t21 35.5q0 18 -15 28t-36 10q-26 0 -45 -6l-13 31l78 84h-19l80 458h-119l10 58h120l25 144h80l-25 -144h120l-10 -58h-121l-80 -458l-62 -67q43 4 70.5 -14t27.5 -55q0 -50 -42 -81t-94 -31q-41 0 -68 14z" />
<glyph horiz-adv-x="360" d="M77 -248l52 180h79l-71 -180h-60zM101 458l10 58h120l25 144h80l-25 -144h120l-10 -58h-121l-80 -458h-80l80 458h-119z" />
<glyph horiz-adv-x="525" d="M10 0l306 543h72l127 -543h-87l-32 149h-220l-80 -149h-86zM208 209h175l-31 146l-19 88l-46 -88z" />
<glyph horiz-adv-x="550" d="M90 0l96 543h186q80 0 128 -30.5t48 -92.5q0 -53 -33.5 -90t-81.5 -49q40 -4 68 -31.5t28 -75.5q0 -83 -64.5 -128.5t-172.5 -45.5h-202zM181 60h122q80 0 111 25.5t31 82.5q0 75 -110 75h-122zM224 303h106q134 0 134 110q0 70 -103 70h-106z" />
<glyph horiz-adv-x="569" d="M91 208q0 152 81 250.5t218 98.5q84 0 140.5 -48t54.5 -137h-91q2 65 -30 95.5t-85 30.5q-90 0 -146 -77.5t-56 -211.5q0 -80 32.5 -122.5t90.5 -42.5q52 0 95 30.5t63 96.5h91q-29 -89 -102.5 -137.5t-157.5 -48.5q-96 0 -147 60t-51 163z" />
<glyph horiz-adv-x="602" d="M90 0l96 543h163q123 0 189.5 -58.5t66.5 -163.5q0 -147 -95.5 -234t-256.5 -87h-163zM181 60h83q55 0 99.5 13.5t80.5 42.5t55.5 80.5t19.5 122.5q0 164 -181 164h-83z" />
<glyph horiz-adv-x="476" d="M90 0l96 543h336l-11 -60h-256l-29 -167h240l-11 -60h-240l-34 -196h256l-11 -60h-336z" />
<glyph horiz-adv-x="458" d="M90 0l96 543h328l-11 -60h-248l-32 -184h232l-11 -60h-232l-42 -239h-80z" />
<glyph horiz-adv-x="579" d="M90 202q0 156 81.5 255.5t218.5 99.5q83 0 140 -46.5t56 -130.5h-91q1 60 -31.5 89t-84.5 29q-91 0 -147 -78.5t-56 -216.5q0 -159 115 -159q83 0 162 69l17 98h-140l11 60h220l-48 -271h-80l9 51q-33 -28 -80.5 -47t-91.5 -19q-88 0 -134 58.5t-46 158.5z" />
<glyph horiz-adv-x="626" d="M90 0l96 543h80l-40 -227h287l40 227h79l-96 -543h-79l45 256h-287l-45 -256h-80z" />
<glyph horiz-adv-x="260" d="M90 0l96 543h80l-96 -543h-80z" />
<glyph horiz-adv-x="481" d="M60 171h91q-8 -67 14.5 -97t61.5 -30q48 0 79.5 27.5t41.5 79.5l69 392h80l-67 -376q-15 -88 -73 -135t-142 -47q-77 0 -122.5 46t-32.5 140z" />
<glyph horiz-adv-x="534" d="M90 0l96 543h80l-46 -260l256 260h93l-263 -258l198 -285h-97l-187 283l-50 -283h-80z" />
<glyph horiz-adv-x="470" d="M102 0l96 543h80l-85 -483h228l-11 -60h-308z" />
<glyph horiz-adv-x="728" d="M90 0l96 543h91l105 -447l274 447h78l-96 -543h-78l55 312l14 69l-229 -381h-68l-99 409l-14 -85l-57 -324h-72z" />
<glyph horiz-adv-x="616" d="M90 0l96 543h88l199 -443l14 86l63 357h72l-96 -543h-88l-199 442l-14 -85l-63 -357h-72z" />
<glyph horiz-adv-x="624" d="M92 217q0 147 91.5 243.5t226.5 96.5q101 0 159.5 -63t58.5 -169q0 -147 -91.5 -243.5t-227.5 -96.5q-101 0 -159 63t-58 169zM178 218q0 -84 39 -129t103 -45q94 0 158 75t64 205q0 84 -39 129t-104 45q-93 0 -157 -75t-64 -205z" />
<glyph horiz-adv-x="508" d="M90 0l96 543h182q72 0 120 -38t48 -108q0 -94 -69 -147t-160 -53h-102l-35 -197h-80zM216 257h102q134 0 134 139q0 87 -95 87h-102z" />
<glyph horiz-adv-x="624" d="M92 217q0 147 91.5 243.5t226.5 96.5q101 0 159.5 -63t58.5 -169q0 -112 -55 -197t-147 -121l111 -124h-100l-90 104q-24 -2 -38 -2q-101 0 -159 63t-58 169zM178 218q0 -84 39 -129t103 -45q94 0 158 75t64 205q0 84 -39 129t-104 45q-93 0 -157 -75t-64 -205z" />
<glyph horiz-adv-x="624" d="M92 217q0 147 91.5 243.5t226.5 96.5q101 0 159.5 -63t58.5 -169q0 -147 -91.5 -243.5t-227.5 -96.5q-101 0 -159 63t-58 169zM178 218q0 -84 39 -129t103 -45q94 0 158 75t64 205q0 84 -39 129t-104 45q-93 0 -157 -75t-64 -205zM187 -116l11 60h291l-11 -60h-291z" />
<glyph horiz-adv-x="524" d="M90 0l96 543h178q72 0 120.5 -36.5t48.5 -103.5q0 -73 -46.5 -120.5t-117.5 -63.5l125 -219h-92l-112 212h-83l-37 -212h-80zM218 272h98q133 0 133 129q0 82 -96 82h-98z" />
<glyph horiz-adv-x="524" d="M78 159h86q-4 -58 30 -86.5t86 -28.5q55 0 97.5 29t42.5 79q0 41 -32.5 61.5t-88.5 32.5q-38 8 -63 16t-53 23t-42.5 39t-14.5 58q0 78 64 126.5t162 48.5q94 0 145 -44t41 -122h-86q4 54 -28 80.5t-83 26.5q-54 0 -93 -26.5t-39 -72.5q0 -21 9 -36t28.5 -25t36 -15 t44.5 -11q36 -7 63 -16.5t55 -25.5t43 -41.5t15 -59.5q0 -81 -68 -132.5t-166 -51.5q-96 0 -149 46t-42 128z" />
<glyph horiz-adv-x="444" d="M115 483l11 60h384l-11 -60h-152l-85 -483h-80l85 483h-152z" />
<glyph horiz-adv-x="607" d="M122 182l64 361h80l-61 -346q-12 -69 12.5 -111t94.5 -42q71 0 113 40t52 98l64 361h72l-61 -346q-17 -98 -84.5 -155t-166.5 -57q-100 0 -147.5 52t-31.5 145z" />
<glyph horiz-adv-x="525" d="M106 543h88l75 -359l19 -88l46 88l192 359h85l-306 -543h-72z" />
<glyph horiz-adv-x="752" d="M106 543h88l34 -343l8 -88l39 88l164 343h76l47 -343l11 -89l37 89l144 343h84l-250 -543h-72l-49 346l-11 91l-41 -91l-166 -346h-72z" />
<glyph horiz-adv-x="491" d="M20 0l228 272l-129 271h87l91 -200l161 200h87l-214 -253l140 -290h-86l-102 220l-176 -220h-87z" />
<glyph horiz-adv-x="532" d="M140 543h91l92 -275l180 275h81l-236 -335l-37 -208h-80l37 208z" />
<glyph horiz-adv-x="442" d="M40 0l11 60l353 423h-271l11 60h354l-11 -60l-353 -423h279l-11 -60h-362z" />
<glyph horiz-adv-x="782" d="M10 0l482 543h336l-11 -59h-256l-29 -168h240l-11 -60h-240l-34 -196h256l-11 -60h-336l26 149h-188l-128 -149h-96zM286 209h147l39 219l-74 -89z" />
<glyph horiz-adv-x="602" d="M44 239l11 60h88l43 244h163q123 0 189.5 -58.5t66.5 -163.5q0 -147 -95.5 -234t-256.5 -87h-163l42 239h-88zM181 60h83q55 0 99.5 13.5t80.5 42.5t55.5 80.5t19.5 122.5q0 164 -181 164h-83l-32 -184h109l-11 -60h-109z" />
<glyph horiz-adv-x="741" d="M90 0l96 543h80l-96 -543h-80zM320 171h91q-8 -67 14.5 -97t61.5 -30q48 0 79.5 27.5t41.5 79.5l69 392h80l-67 -376q-15 -88 -73 -135t-142 -47q-77 0 -122.5 46t-32.5 140z" />
<glyph horiz-adv-x="616" d="M90 0l96 543h88l199 -443l14 86l63 357h72l-96 -543q-17 -93 -74.5 -133t-133.5 -40q-41 0 -63 13l10 58q32 -9 64 -9q101 0 117 94l-207 459l-14 -85l-63 -357h-72z" />
<glyph horiz-adv-x="624" d="M64 -70l87 118q-59 62 -59 169q0 147 91.5 243.5t226.5 96.5q55 0 100 -20l55 75h91l-87 -118q59 -64 59 -169q0 -147 -91.5 -243.5t-227.5 -96.5q-54 0 -99 20l-55 -75h-91zM178 218q0 -61 22 -103l269 366q-31 17 -70 17q-93 0 -157 -75t-64 -205zM251 61 q31 -17 69 -17q94 0 158 75t64 205q0 61 -22 103z" />
<glyph horiz-adv-x="787" d="M92 222q0 147 95.5 234t257.5 87h388l-11 -60h-256l-29 -167h240l-11 -60h-240l-34 -196h256l-11 -60h-388q-123 0 -190 58.5t-67 163.5zM178 224q0 -164 182 -164h52l74 423h-52q-116 0 -186 -60.5t-70 -198.5z" />
<glyph horiz-adv-x="508" d="M90 0l96 543h80l-16 -90h102q72 0 120 -38t48 -108q0 -94 -69 -147t-160 -53h-102l-19 -107h-80zM200 167h102q134 0 134 139q0 87 -95 87h-102z" />
<glyph horiz-adv-x="634" d="M90 0l53 303q21 121 90 180.5t175 59.5h176l-11 -60l-156 -176q72 -13 102 -55t30 -91q0 -80 -60.5 -128t-133.5 -48q-65 0 -98 32.5t-24 87.5h74q-2 -28 15 -44.5t48 -16.5q40 0 67 29.5t27 80.5q0 43 -30 70.5t-85 27.5h-22l11 60l152 171h-93q-69 0 -112.5 -38 t-59.5 -132l-55 -313h-80z" />
<glyph horiz-adv-x="525" d="M10 0l306 543h72l127 -543h-87l-32 149h-220l-80 -149h-86zM208 209h175l-31 146l-19 88l-46 -88zM280 584l121 107h109l-150 -107h-80z" />
<glyph horiz-adv-x="525" d="M10 0l306 543h72l127 -543h-87l-32 149h-220l-80 -149h-86zM208 209h175l-31 146l-19 88l-46 -88zM255 691h58q-4 -22 9 -35.5t44 -13.5q57 0 66 49h62q-10 -54 -47.5 -84t-91.5 -30t-82 30t-18 84z" />
<glyph horiz-adv-x="525" d="M10 0l306 543h72l127 -543h-87l-32 149h-220l-80 -149h-86zM202 584l143 107h60l104 -107h-74l-70 45l-85 -45h-78zM208 209h175l-31 146l-19 88l-46 -88z" />
<glyph horiz-adv-x="525" d="M10 0l306 543h72l127 -543h-87l-32 149h-220l-80 -149h-86zM208 209h175l-31 146l-19 88l-46 -88zM230 633q0 23 18.5 39t40.5 16q18 0 30.5 -11.5t12.5 -29.5q0 -23 -18.5 -39t-41.5 -16q-18 0 -30 11.5t-12 29.5zM399 633q0 23 18.5 39t40.5 16q18 0 30.5 -11.5 t12.5 -29.5q0 -23 -18.5 -39t-41.5 -16q-18 0 -30 11.5t-12 29.5z" />
<glyph horiz-adv-x="525" d="M10 0l306 543h72l127 -543h-87l-32 149h-220l-80 -149h-86zM208 209h175l-31 146l-19 88l-46 -88zM239 691h100l92 -107h-72z" />
<glyph horiz-adv-x="525" d="M10 0l306 543h72l127 -543h-87l-32 149h-220l-80 -149h-86zM208 209h175l-31 146l-19 88l-46 -88zM235 605l10 59h248l-10 -59h-248z" />
<glyph horiz-adv-x="525" d="M10 0l306 543h72l127 -543q-76 -35 -113.5 -70.5t-37.5 -78.5q0 -20 12.5 -31.5t31.5 -11.5q33 0 77 23l-9 -55q-48 -24 -96 -24q-40 0 -63.5 23t-23.5 60q0 94 142 165h-7l-32 149h-220l-80 -149h-86zM208 209h175l-31 146l-19 88l-46 -88z" />
<glyph horiz-adv-x="525" d="M10 0l306 543h72l127 -543h-87l-32 149h-220l-80 -149h-86zM208 209h175l-31 146l-19 88l-46 -88zM282 627q0 38 29.5 61t70.5 23q34 0 54.5 -16.5t20.5 -45.5q0 -38 -29.5 -61t-70.5 -23q-34 0 -54.5 16.5t-20.5 45.5zM335 631q0 -27 29 -27q18 0 29 11t11 30 q0 27 -29 27q-18 0 -29 -11t-11 -30z" />
<glyph horiz-adv-x="525" d="M10 0l306 543h72l127 -543h-87l-32 149h-220l-80 -149h-86zM208 209h175l-31 146l-19 88l-46 -88zM219 620q43 68 97 68q22 0 60.5 -16.5t49.5 -16.5q23 0 45 30l40 -23q-41 -68 -96 -68q-23 0 -62 16t-50 16q-22 0 -44 -29z" />
<glyph horiz-adv-x="569" d="M91 208q0 152 81 250.5t218 98.5q84 0 140.5 -48t54.5 -137h-91q2 65 -30 95.5t-85 30.5q-90 0 -146 -77.5t-56 -211.5q0 -80 32.5 -122.5t90.5 -42.5q52 0 95 30.5t63 96.5h91q-29 -89 -102.5 -137.5t-157.5 -48.5q-96 0 -147 60t-51 163zM302 584l121 107h109 l-150 -107h-80z" />
<glyph horiz-adv-x="569" d="M91 208q0 152 81 250.5t218 98.5q84 0 140.5 -48t54.5 -137h-91q2 65 -30 95.5t-85 30.5q-90 0 -146 -77.5t-56 -211.5q0 -80 32.5 -122.5t90.5 -42.5q52 0 95 30.5t63 96.5h91q-29 -89 -102.5 -137.5t-157.5 -48.5q-96 0 -147 60t-51 163zM253 691h74l69 -45l86 45h78 l-142 -107h-60z" />
<glyph horiz-adv-x="569" d="M91 208q0 152 81 250.5t218 98.5q84 0 140.5 -48t54.5 -137h-91q2 65 -30 95.5t-85 30.5q-90 0 -146 -77.5t-56 -211.5q0 -80 32.5 -122.5t90.5 -42.5q52 0 95 30.5t63 96.5h91q-27 -82 -92 -130t-143 -55l-49 -53q43 4 70.5 -14t27.5 -55q0 -50 -42 -81t-94 -31 q-41 0 -68 14l9 51q25 -13 62 -13q25 0 46 13.5t21 35.5q0 18 -15 28t-36 10q-26 0 -45 -6l-13 31l66 71q-80 11 -121.5 69.5t-41.5 151.5z" />
<glyph horiz-adv-x="569" d="M91 208q0 152 81 250.5t218 98.5q84 0 140.5 -48t54.5 -137h-91q2 65 -30 95.5t-85 30.5q-90 0 -146 -77.5t-56 -211.5q0 -80 32.5 -122.5t90.5 -42.5q52 0 95 30.5t63 96.5h91q-29 -89 -102.5 -137.5t-157.5 -48.5q-96 0 -147 60t-51 163zM234 584l143 107h60l104 -107 h-74l-70 45l-85 -45h-78z" />
<glyph horiz-adv-x="569" d="M91 208q0 152 81 250.5t218 98.5q84 0 140.5 -48t54.5 -137h-91q2 65 -30 95.5t-85 30.5q-90 0 -146 -77.5t-56 -211.5q0 -80 32.5 -122.5t90.5 -42.5q52 0 95 30.5t63 96.5h91q-29 -89 -102.5 -137.5t-157.5 -48.5q-96 0 -147 60t-51 163zM346 633q0 23 18.5 39t40.5 16 q18 0 30.5 -11.5t12.5 -29.5q0 -23 -18.5 -39t-41.5 -16q-18 0 -30 11.5t-12 29.5z" />
<glyph horiz-adv-x="602" d="M90 0l96 543h163q123 0 189.5 -58.5t66.5 -163.5q0 -147 -95.5 -234t-256.5 -87h-163zM181 60h83q55 0 99.5 13.5t80.5 42.5t55.5 80.5t19.5 122.5q0 164 -181 164h-83zM240 691h74l69 -45l86 45h78l-142 -107h-60z" />
<glyph horiz-adv-x="602" d="M44 239l11 60h88l43 244h163q123 0 189.5 -58.5t66.5 -163.5q0 -147 -95.5 -234t-256.5 -87h-163l42 239h-88zM181 60h83q55 0 99.5 13.5t80.5 42.5t55.5 80.5t19.5 122.5q0 164 -181 164h-83l-32 -184h109l-11 -60h-109z" />
<glyph horiz-adv-x="476" d="M90 0l96 543h336l-11 -60h-256l-29 -167h240l-11 -60h-240l-34 -196h256l-11 -60h-336zM256 584l121 107h109l-150 -107h-80z" />
<glyph horiz-adv-x="476" d="M90 0l96 543h336l-11 -60h-256l-29 -167h240l-11 -60h-240l-34 -196h256l-11 -60h-336zM256 691h58q-4 -22 9 -35.5t44 -13.5q57 0 66 49h62q-10 -54 -47.5 -84t-91.5 -30t-82 30t-18 84z" />
<glyph horiz-adv-x="476" d="M90 0l96 543h336l-11 -60h-256l-29 -167h240l-11 -60h-240l-34 -196h256l-11 -60h-336zM222 691h74l69 -45l86 45h78l-142 -107h-60z" />
<glyph horiz-adv-x="476" d="M90 0l96 543h336l-11 -60h-256l-29 -167h240l-11 -60h-240l-34 -196h256l-11 -60h-336zM203 584l143 107h60l104 -107h-74l-70 45l-85 -45h-78z" />
<glyph horiz-adv-x="476" d="M90 0l96 543h336l-11 -60h-256l-29 -167h240l-11 -60h-240l-34 -196h256l-11 -60h-336zM231 633q0 23 18.5 39t40.5 16q18 0 30.5 -11.5t12.5 -29.5q0 -23 -18.5 -39t-41.5 -16q-18 0 -30 11.5t-12 29.5zM400 633q0 23 18.5 39t40.5 16q18 0 30.5 -11.5t12.5 -29.5 q0 -23 -18.5 -39t-41.5 -16q-18 0 -30 11.5t-12 29.5z" />
<glyph horiz-adv-x="476" d="M90 0l96 543h336l-11 -60h-256l-29 -167h240l-11 -60h-240l-34 -196h256l-11 -60h-336zM315 633q0 23 18.5 39t40.5 16q18 0 30.5 -11.5t12.5 -29.5q0 -23 -18.5 -39t-41.5 -16q-18 0 -30 11.5t-12 29.5z" />
<glyph horiz-adv-x="476" d="M90 0l96 543h336l-11 -60h-256l-29 -167h240l-11 -60h-240l-34 -196h256l-11 -60h-336zM245 691h100l92 -107h-72z" />
<glyph horiz-adv-x="476" d="M90 0l96 543h336l-11 -60h-256l-29 -167h240l-11 -60h-240l-34 -196h256l-11 -60h-336zM236 605l10 59h248l-10 -59h-248z" />
<glyph horiz-adv-x="476" d="M90 0l96 543h336l-11 -60h-256l-29 -167h240l-11 -60h-240l-34 -196h256l-11 -60q-76 -35 -113.5 -70.5t-37.5 -78.5q0 -20 12.5 -31.5t31.5 -11.5q33 0 77 23l-9 -55q-48 -24 -96 -24q-40 0 -63.5 23t-23.5 60q0 94 142 165h-256z" />
<glyph horiz-adv-x="579" d="M90 202q0 156 81.5 255.5t218.5 99.5q83 0 140 -46.5t56 -130.5h-91q1 60 -31.5 89t-84.5 29q-91 0 -147 -78.5t-56 -216.5q0 -159 115 -159q83 0 162 69l17 98h-140l11 60h220l-48 -271h-80l9 51q-33 -28 -80.5 -47t-91.5 -19q-88 0 -134 58.5t-46 158.5zM287 691h58 q-4 -22 9 -35.5t44 -13.5q57 0 66 49h62q-10 -54 -47.5 -84t-91.5 -30t-82 30t-18 84z" />
<glyph horiz-adv-x="579" d="M90 202q0 156 81.5 255.5t218.5 99.5q83 0 140 -46.5t56 -130.5h-91q1 60 -31.5 89t-84.5 29q-91 0 -147 -78.5t-56 -216.5q0 -159 115 -159q83 0 162 69l17 98h-140l11 60h220l-48 -271h-80l9 51q-33 -28 -80.5 -47t-91.5 -19q-88 0 -134 58.5t-46 158.5zM234 584 l143 107h60l104 -107h-74l-70 45l-85 -45h-78z" />
<glyph horiz-adv-x="579" d="M90 202q0 156 81.5 255.5t218.5 99.5q83 0 140 -46.5t56 -130.5h-91q1 60 -31.5 89t-84.5 29q-91 0 -147 -78.5t-56 -216.5q0 -159 115 -159q83 0 162 69l17 98h-140l11 60h220l-48 -271h-80l9 51q-33 -28 -80.5 -47t-91.5 -19q-88 0 -134 58.5t-46 158.5zM191 -248 l52 180h79l-71 -180h-60z" />
<glyph horiz-adv-x="579" d="M90 202q0 156 81.5 255.5t218.5 99.5q83 0 140 -46.5t56 -130.5h-91q1 60 -31.5 89t-84.5 29q-91 0 -147 -78.5t-56 -216.5q0 -159 115 -159q83 0 162 69l17 98h-140l11 60h220l-48 -271h-80l9 51q-33 -28 -80.5 -47t-91.5 -19q-88 0 -134 58.5t-46 158.5zM346 633 q0 23 18.5 39t40.5 16q18 0 30.5 -11.5t12.5 -29.5q0 -23 -18.5 -39t-41.5 -16q-18 0 -30 11.5t-12 29.5z" />
<glyph horiz-adv-x="626" d="M90 0l71 400h-61l11 60h60l15 83h80l-15 -83h287l15 83h79l-15 -83h60l-11 -60h-59l-71 -400h-79l45 256h-287l-45 -256h-80zM226 316h287l15 84h-287z" />
<glyph horiz-adv-x="626" d="M90 0l96 543h80l-40 -227h287l40 227h79l-96 -543h-79l45 256h-287l-45 -256h-80zM262 584l143 107h60l104 -107h-74l-70 45l-85 -45h-78z" />
<glyph horiz-adv-x="260" d="M90 0l96 543h80l-96 -543h-80zM158 584l121 107h109l-150 -107h-80z" />
<glyph horiz-adv-x="260" d="M90 0l96 543h80l-96 -543h-80zM133 691h58q-4 -22 9 -35.5t44 -13.5q57 0 66 49h62q-10 -54 -47.5 -84t-91.5 -30t-82 30t-18 84z" />
<glyph horiz-adv-x="260" d="M80 584l143 107h60l104 -107h-74l-70 45l-85 -45h-78zM90 0l96 543h80l-96 -543h-80z" />
<glyph horiz-adv-x="260" d="M90 0l96 543h80l-96 -543h-80zM118 633q0 23 18.5 39t40.5 16q18 0 30.5 -11.5t12.5 -29.5q0 -23 -18.5 -39t-41.5 -16q-18 0 -30 11.5t-12 29.5zM267 633q0 23 18.5 39t40.5 16q18 0 30.5 -11.5t12.5 -29.5q0 -23 -18.5 -39t-41.5 -16q-18 0 -30 11.5t-12 29.5z" />
<glyph horiz-adv-x="260" d="M90 0l96 543h80l-96 -543h-80zM117 691h100l92 -107h-72z" />
<glyph horiz-adv-x="260" d="M90 0l96 543h80l-96 -543h-80zM114 605l10 59h248l-10 -59h-248z" />
<glyph horiz-adv-x="260" d="M-52 -165q0 94 142 165l96 543h80l-96 -543q-76 -35 -113.5 -70.5t-37.5 -78.5q0 -20 12.5 -31.5t31.5 -11.5q33 0 77 23l-9 -55q-48 -24 -96 -24q-40 0 -63.5 23t-23.5 60z" />
<glyph horiz-adv-x="260" d="M90 0l96 543h80l-96 -543h-80zM98 620q42 68 97 68q22 0 60.5 -16.5t49.5 -16.5q23 0 45 30l40 -23q-41 -68 -96 -68q-23 0 -62 16t-50 16q-22 0 -44 -29z" />
<glyph horiz-adv-x="481" d="M60 171h91q-8 -67 14.5 -97t61.5 -30q48 0 79.5 27.5t41.5 79.5l69 392h80l-67 -376q-15 -88 -73 -135t-142 -47q-77 0 -122.5 46t-32.5 140zM310 584l143 107h60l104 -107h-74l-70 45l-85 -45h-78z" />
<glyph horiz-adv-x="534" d="M90 0l96 543h80l-46 -260l256 260h93l-263 -258l198 -285h-97l-187 283l-50 -283h-80zM154 -248l52 180h79l-71 -180h-60z" />
<glyph horiz-adv-x="470" d="M102 0l96 543h80l-85 -483h228l-11 -60h-308zM190 584l121 107h109l-150 -107h-80z" />
<glyph horiz-adv-x="470" d="M102 0l96 543h80l-85 -483h228l-11 -60h-308zM346 382l39 220h77l-58 -220h-58z" />
<glyph horiz-adv-x="470" d="M102 0l96 543h80l-85 -483h228l-11 -60h-308zM153 -248l52 180h79l-71 -180h-60z" />
<glyph horiz-adv-x="470" d="M102 0l96 543h80l-85 -483h228l-11 -60h-308zM368 252q0 23 18.5 39t40.5 16q18 0 30.5 -11.5t12.5 -29.5q0 -23 -18.5 -39t-41.5 -16q-18 0 -30 11.5t-12 29.5z" />
<glyph horiz-adv-x="470" d="M71 176l13 71l68 36l46 260h80l-38 -213l115 60l-13 -70l-114 -61l-35 -199h228l-11 -60h-308l38 212z" />
<glyph horiz-adv-x="616" d="M90 0l96 543h88l199 -443l14 86l63 357h72l-96 -543h-88l-199 442l-14 -85l-63 -357h-72zM336 584l121 107h109l-150 -107h-80z" />
<glyph horiz-adv-x="616" d="M90 0l96 543h88l199 -443l14 86l63 357h72l-96 -543h-88l-199 442l-14 -85l-63 -357h-72zM277 691h74l69 -45l86 45h78l-142 -107h-60z" />
<glyph horiz-adv-x="616" d="M90 0l96 543h88l199 -443l14 86l63 357h72l-96 -543h-88l-199 442l-14 -85l-63 -357h-72zM215 -248l52 180h79l-71 -180h-60z" />
<glyph horiz-adv-x="616" d="M90 0l96 543h88l199 -443l14 86l63 357h72l-96 -543h-88l-199 442l-14 -85l-63 -357h-72zM275 620q43 68 97 68q22 0 60.5 -16.5t49.5 -16.5q23 0 45 30l40 -23q-41 -68 -96 -68q-23 0 -62 16t-50 16q-22 0 -44 -29z" />
<glyph horiz-adv-x="624" d="M92 217q0 147 91.5 243.5t226.5 96.5q101 0 159.5 -63t58.5 -169q0 -147 -91.5 -243.5t-227.5 -96.5q-101 0 -159 63t-58 169zM178 218q0 -84 39 -129t103 -45q94 0 158 75t64 205q0 84 -39 129t-104 45q-93 0 -157 -75t-64 -205zM340 584l121 107h109l-150 -107h-80z " />
<glyph horiz-adv-x="624" d="M92 217q0 147 91.5 243.5t226.5 96.5q101 0 159.5 -63t58.5 -169q0 -147 -91.5 -243.5t-227.5 -96.5q-101 0 -159 63t-58 169zM178 218q0 -84 39 -129t103 -45q94 0 158 75t64 205q0 84 -39 129t-104 45q-93 0 -157 -75t-64 -205zM315 691h58q-4 -22 9 -35.5t44 -13.5 q57 0 66 49h62q-10 -54 -47.5 -84t-91.5 -30t-82 30t-18 84z" />
<glyph horiz-adv-x="624" d="M92 217q0 147 91.5 243.5t226.5 96.5q101 0 159.5 -63t58.5 -169q0 -147 -91.5 -243.5t-227.5 -96.5q-101 0 -159 63t-58 169zM178 218q0 -84 39 -129t103 -45q94 0 158 75t64 205q0 84 -39 129t-104 45q-93 0 -157 -75t-64 -205zM262 584l143 107h60l104 -107h-74 l-70 45l-85 -45h-78z" />
<glyph horiz-adv-x="624" d="M92 217q0 147 91.5 243.5t226.5 96.5q101 0 159.5 -63t58.5 -169q0 -147 -91.5 -243.5t-227.5 -96.5q-101 0 -159 63t-58 169zM178 218q0 -84 39 -129t103 -45q94 0 158 75t64 205q0 84 -39 129t-104 45q-93 0 -157 -75t-64 -205zM290 633q0 23 18.5 39t40.5 16 q18 0 30.5 -11.5t12.5 -29.5q0 -23 -18.5 -39t-41.5 -16q-18 0 -30 11.5t-12 29.5zM459 633q0 23 18.5 39t40.5 16q18 0 30.5 -11.5t12.5 -29.5q0 -23 -18.5 -39t-41.5 -16q-18 0 -30 11.5t-12 29.5z" />
<glyph horiz-adv-x="624" d="M92 217q0 147 91.5 243.5t226.5 96.5q101 0 159.5 -63t58.5 -169q0 -147 -91.5 -243.5t-227.5 -96.5q-101 0 -159 63t-58 169zM178 218q0 -84 39 -129t103 -45q94 0 158 75t64 205q0 84 -39 129t-104 45q-93 0 -157 -75t-64 -205zM299 691h100l92 -107h-72z" />
<glyph horiz-adv-x="624" d="M92 217q0 147 91.5 243.5t226.5 96.5q101 0 159.5 -63t58.5 -169q0 -147 -91.5 -243.5t-227.5 -96.5q-101 0 -159 63t-58 169zM178 218q0 -84 39 -129t103 -45q94 0 158 75t64 205q0 84 -39 129t-104 45q-93 0 -157 -75t-64 -205zM273 584l107 107h103l-136 -107h-74z M427 584l106 107h104l-136 -107h-74z" />
<glyph horiz-adv-x="624" d="M92 217q0 147 91.5 243.5t226.5 96.5q101 0 159.5 -63t58.5 -169q0 -147 -91.5 -243.5t-227.5 -96.5q-101 0 -159 63t-58 169zM178 218q0 -84 39 -129t103 -45q94 0 158 75t64 205q0 84 -39 129t-104 45q-93 0 -157 -75t-64 -205zM295 605l10 59h248l-10 -59h-248z" />
<glyph horiz-adv-x="624" d="M92 217q0 147 91.5 243.5t226.5 96.5q101 0 159.5 -63t58.5 -169q0 -147 -91.5 -243.5t-227.5 -96.5q-101 0 -159 63t-58 169zM178 218q0 -84 39 -129t103 -45q94 0 158 75t64 205q0 84 -39 129t-104 45q-93 0 -157 -75t-64 -205zM279 620q43 68 97 68q22 0 60.5 -16.5 t49.5 -16.5q23 0 45 30l40 -23q-41 -68 -96 -68q-23 0 -62 16t-50 16q-22 0 -44 -29z" />
<glyph horiz-adv-x="524" d="M90 0l96 543h178q72 0 120.5 -36.5t48.5 -103.5q0 -73 -46.5 -120.5t-117.5 -63.5l125 -219h-92l-112 212h-83l-37 -212h-80zM218 272h98q133 0 133 129q0 82 -96 82h-98zM260 584l121 107h109l-150 -107h-80z" />
<glyph horiz-adv-x="524" d="M90 0l96 543h178q72 0 120.5 -36.5t48.5 -103.5q0 -73 -46.5 -120.5t-117.5 -63.5l125 -219h-92l-112 212h-83l-37 -212h-80zM216 691h74l69 -45l86 45h78l-142 -107h-60zM218 272h98q133 0 133 129q0 82 -96 82h-98z" />
<glyph horiz-adv-x="524" d="M90 0l96 543h178q72 0 120.5 -36.5t48.5 -103.5q0 -73 -46.5 -120.5t-117.5 -63.5l125 -219h-92l-112 212h-83l-37 -212h-80zM159 -248l52 180h79l-71 -180h-60zM218 272h98q133 0 133 129q0 82 -96 82h-98z" />
<glyph horiz-adv-x="524" d="M78 159h86q-4 -58 30 -86.5t86 -28.5q55 0 97.5 29t42.5 79q0 41 -32.5 61.5t-88.5 32.5q-38 8 -63 16t-53 23t-42.5 39t-14.5 58q0 78 64 126.5t162 48.5q94 0 145 -44t41 -122h-86q4 54 -28 80.5t-83 26.5q-54 0 -93 -26.5t-39 -72.5q0 -21 9 -36t28.5 -25t36 -15 t44.5 -11q36 -7 63 -16.5t55 -25.5t43 -41.5t15 -59.5q0 -81 -68 -132.5t-166 -51.5q-96 0 -149 46t-42 128zM280 584l121 107h109l-150 -107h-80z" />
<glyph horiz-adv-x="524" d="M78 159h86q-4 -58 30 -86.5t86 -28.5q55 0 97.5 29t42.5 79q0 41 -32.5 61.5t-88.5 32.5q-38 8 -63 16t-53 23t-42.5 39t-14.5 58q0 78 64 126.5t162 48.5q94 0 145 -44t41 -122h-86q4 54 -28 80.5t-83 26.5q-54 0 -93 -26.5t-39 -72.5q0 -21 9 -36t28.5 -25t36 -15 t44.5 -11q36 -7 63 -16.5t55 -25.5t43 -41.5t15 -59.5q0 -81 -68 -132.5t-166 -51.5q-96 0 -149 46t-42 128zM226 691h74l69 -45l86 45h78l-142 -107h-60z" />
<glyph horiz-adv-x="524" d="M78 159h86q-4 -58 30 -86.5t86 -28.5q55 0 97.5 29t42.5 79q0 41 -32.5 61.5t-88.5 32.5q-38 8 -63 16t-53 23t-42.5 39t-14.5 58q0 78 64 126.5t162 48.5q94 0 145 -44t41 -122h-86q4 54 -28 80.5t-83 26.5q-54 0 -93 -26.5t-39 -72.5q0 -21 9 -36t28.5 -25t36 -15 t44.5 -11q36 -7 63 -16.5t55 -25.5t43 -41.5t15 -59.5q0 -81 -68 -132.5t-166 -51.5q-96 0 -149 46t-42 128zM159 -248l52 180h79l-71 -180h-60z" />
<glyph horiz-adv-x="524" d="M78 159h86q-4 -58 30 -86.5t86 -28.5q55 0 97.5 29t42.5 79q0 41 -32.5 61.5t-88.5 32.5q-38 8 -63 16t-53 23t-42.5 39t-14.5 58q0 78 64 126.5t162 48.5q94 0 145 -44t41 -122h-86q4 54 -28 80.5t-83 26.5q-54 0 -93 -26.5t-39 -72.5q0 -21 9 -36t28.5 -25t36 -15 t44.5 -11q36 -7 63 -16.5t55 -25.5t43 -41.5t15 -59.5q0 -81 -68 -132.5t-166 -51.5q-96 0 -149 46t-42 128zM206 584l143 107h60l104 -107h-74l-70 45l-85 -45h-78z" />
<glyph horiz-adv-x="524" d="M78 159h86q-4 -58 30 -86.5t86 -28.5q55 0 97.5 29t42.5 79q0 41 -32.5 61.5t-88.5 32.5q-38 8 -63 16t-53 23t-42.5 39t-14.5 58q0 78 64 126.5t162 48.5q94 0 145 -44t41 -122h-86q4 54 -28 80.5t-83 26.5q-54 0 -93 -26.5t-39 -72.5q0 -21 9 -36t28.5 -25t36 -15 t44.5 -11q36 -7 63 -16.5t55 -25.5t43 -41.5t15 -59.5q0 -79 -63.5 -129.5t-158.5 -54.5l-48 -52q43 4 70.5 -14t27.5 -55q0 -50 -42 -81t-94 -31q-41 0 -68 14l9 51q25 -13 62 -13q25 0 46 13.5t21 35.5q0 18 -15 28t-36 10q-26 0 -45 -6l-13 31l67 72q-75 11 -115 55.5 t-30 115.5z" />
<glyph horiz-adv-x="444" d="M114 239l11 60h110l32 184h-152l11 60h384l-11 -60h-152l-32 -184h110l-11 -60h-110l-42 -239h-80l42 239h-110z" />
<glyph horiz-adv-x="444" d="M115 483l11 60h384l-11 -60h-152l-85 -483h-80l85 483h-152zM191 691h74l69 -45l86 45h78l-142 -107h-60z" />
<glyph horiz-adv-x="444" d="M95 -234l9 51q25 -13 62 -13q25 0 46 13.5t21 35.5q0 18 -15 28t-36 10q-26 0 -45 -6l-13 31l78 84h-20l85 483h-152l11 60h384l-11 -60h-152l-85 -483h1l-62 -67q43 4 70.5 -14t27.5 -55q0 -50 -42 -81t-94 -31q-41 0 -68 14z" />
<glyph horiz-adv-x="444" d="M115 483l11 60h384l-11 -60h-152l-85 -483h-80l85 483h-152zM119 -248l52 180h79l-71 -180h-60z" />
<glyph horiz-adv-x="607" d="M122 182l64 361h80l-61 -346q-12 -69 12.5 -111t94.5 -42q71 0 113 40t52 98l64 361h72l-61 -346q-17 -98 -84.5 -155t-166.5 -57q-100 0 -147.5 52t-31.5 145zM321 584l121 107h109l-150 -107h-80z" />
<glyph horiz-adv-x="607" d="M122 182l64 361h80l-61 -346q-12 -69 12.5 -111t94.5 -42q71 0 113 40t52 98l64 361h72l-61 -346q-17 -98 -84.5 -155t-166.5 -57q-100 0 -147.5 52t-31.5 145zM306 691h58q-4 -22 9 -35.5t44 -13.5q57 0 66 49h62q-10 -54 -47.5 -84t-91.5 -30t-82 30t-18 84z" />
<glyph horiz-adv-x="607" d="M122 182l64 361h80l-61 -346q-12 -69 12.5 -111t94.5 -42q71 0 113 40t52 98l64 361h72l-61 -346q-17 -98 -84.5 -155t-166.5 -57q-100 0 -147.5 52t-31.5 145zM253 584l143 107h60l104 -107h-74l-70 45l-85 -45h-78z" />
<glyph horiz-adv-x="607" d="M122 182l64 361h80l-61 -346q-12 -69 12.5 -111t94.5 -42q71 0 113 40t52 98l64 361h72l-61 -346q-17 -98 -84.5 -155t-166.5 -57q-100 0 -147.5 52t-31.5 145zM281 633q0 23 18.5 39t40.5 16q18 0 30.5 -11.5t12.5 -29.5q0 -23 -18.5 -39t-41.5 -16q-18 0 -30 11.5 t-12 29.5zM450 633q0 23 18.5 39t40.5 16q18 0 30.5 -11.5t12.5 -29.5q0 -23 -18.5 -39t-41.5 -16q-18 0 -30 11.5t-12 29.5z" />
<glyph horiz-adv-x="607" d="M122 182l64 361h80l-61 -346q-12 -69 12.5 -111t94.5 -42q71 0 113 40t52 98l64 361h72l-61 -346q-17 -98 -84.5 -155t-166.5 -57q-100 0 -147.5 52t-31.5 145zM300 691h100l92 -107h-72z" />
<glyph horiz-adv-x="607" d="M122 182l64 361h80l-61 -346q-12 -69 12.5 -111t94.5 -42q71 0 113 40t52 98l64 361h72l-61 -346q-17 -98 -84.5 -155t-166.5 -57q-100 0 -147.5 52t-31.5 145zM264 584l107 107h103l-136 -107h-74zM418 584l106 107h104l-136 -107h-74z" />
<glyph horiz-adv-x="607" d="M122 182l64 361h80l-61 -346q-12 -69 12.5 -111t94.5 -42q71 0 113 40t52 98l64 361h72l-61 -346q-17 -98 -84.5 -155t-166.5 -57q-100 0 -147.5 52t-31.5 145zM286 605l10 59h248l-10 -59h-248z" />
<glyph horiz-adv-x="607" d="M122 182l64 361h80l-61 -346q-12 -69 12.5 -111t94.5 -42q71 0 113 40t52 98l64 361h72l-61 -346q-14 -79 -61 -132t-118 -71q-138 -67 -138 -143q0 -20 12.5 -31.5t31.5 -11.5q33 0 77 23l-9 -55q-48 -24 -96 -24q-40 0 -63.5 23t-23.5 60q0 85 115 151q-89 5 -131 57 t-26 139z" />
<glyph horiz-adv-x="607" d="M122 182l64 361h80l-61 -346q-12 -69 12.5 -111t94.5 -42q71 0 113 40t52 98l64 361h72l-61 -346q-17 -98 -84.5 -155t-166.5 -57q-100 0 -147.5 52t-31.5 145zM328 627q0 38 29.5 61t70.5 23q34 0 54.5 -16.5t20.5 -45.5q0 -38 -29.5 -61t-70.5 -23q-34 0 -54.5 16.5 t-20.5 45.5zM381 631q0 -27 29 -27q18 0 29 11t11 30q0 27 -29 27q-18 0 -29 -11t-11 -30z" />
<glyph horiz-adv-x="607" d="M122 182l64 361h80l-61 -346q-12 -69 12.5 -111t94.5 -42q71 0 113 40t52 98l64 361h72l-61 -346q-17 -98 -84.5 -155t-166.5 -57q-100 0 -147.5 52t-31.5 145zM270 620q42 68 97 68q22 0 60.5 -16.5t49.5 -16.5q23 0 45 30l40 -23q-41 -68 -96 -68q-23 0 -62 16t-50 16 q-22 0 -44 -29z" />
<glyph horiz-adv-x="752" d="M106 543h88l34 -343l8 -88l39 88l164 343h76l47 -343l11 -89l37 89l144 343h84l-250 -543h-72l-49 346l-11 91l-41 -91l-166 -346h-72zM414 584l121 107h109l-150 -107h-80z" />
<glyph horiz-adv-x="752" d="M106 543h88l34 -343l8 -88l39 88l164 343h76l47 -343l11 -89l37 89l144 343h84l-250 -543h-72l-49 346l-11 91l-41 -91l-166 -346h-72zM336 584l143 107h60l104 -107h-74l-70 45l-85 -45h-78z" />
<glyph horiz-adv-x="752" d="M106 543h88l34 -343l8 -88l39 88l164 343h76l47 -343l11 -89l37 89l144 343h84l-250 -543h-72l-49 346l-11 91l-41 -91l-166 -346h-72zM364 633q0 23 18.5 39t40.5 16q18 0 30.5 -11.5t12.5 -29.5q0 -23 -18.5 -39t-41.5 -16q-18 0 -30 11.5t-12 29.5zM533 633 q0 23 18.5 39t40.5 16q18 0 30.5 -11.5t12.5 -29.5q0 -23 -18.5 -39t-41.5 -16q-18 0 -30 11.5t-12 29.5z" />
<glyph horiz-adv-x="752" d="M106 543h88l34 -343l8 -88l39 88l164 343h76l47 -343l11 -89l37 89l144 343h84l-250 -543h-72l-49 346l-11 91l-41 -91l-166 -346h-72zM363 691h100l92 -107h-72z" />
<glyph horiz-adv-x="532" d="M140 543h91l92 -275l180 275h81l-236 -335l-37 -208h-80l37 208zM294 584l121 107h109l-150 -107h-80z" />
<glyph horiz-adv-x="532" d="M140 543h91l92 -275l180 275h81l-236 -335l-37 -208h-80l37 208zM221 584l143 107h60l104 -107h-74l-70 45l-85 -45h-78z" />
<glyph horiz-adv-x="532" d="M140 543h91l92 -275l180 275h81l-236 -335l-37 -208h-80l37 208zM249 633q0 23 18.5 39t40.5 16q18 0 30.5 -11.5t12.5 -29.5q0 -23 -18.5 -39t-41.5 -16q-18 0 -30 11.5t-12 29.5zM418 633q0 23 18.5 39t40.5 16q18 0 30.5 -11.5t12.5 -29.5q0 -23 -18.5 -39t-41.5 -16 q-18 0 -30 11.5t-12 29.5z" />
<glyph horiz-adv-x="532" d="M140 543h91l92 -275l180 275h81l-236 -335l-37 -208h-80l37 208zM253 691h100l92 -107h-72z" />
<glyph horiz-adv-x="442" d="M40 0l11 60l353 423h-271l11 60h354l-11 -60l-353 -423h279l-11 -60h-362zM239 584l121 107h109l-150 -107h-80z" />
<glyph horiz-adv-x="442" d="M40 0l11 60l353 423h-271l11 60h354l-11 -60l-353 -423h279l-11 -60h-362zM195 691h74l69 -45l86 45h78l-142 -107h-60z" />
<glyph horiz-adv-x="442" d="M40 0l11 60l353 423h-271l11 60h354l-11 -60l-353 -423h279l-11 -60h-362zM283 633q0 23 18.5 39t40.5 16q18 0 30.5 -11.5t12.5 -29.5q0 -23 -18.5 -39t-41.5 -16q-18 0 -30 11.5t-12 29.5z" />
<glyph horiz-adv-x="782" d="M10 0l482 543h336l-11 -59h-256l-29 -168h240l-11 -60h-240l-34 -196h256l-11 -60h-336l26 149h-188l-128 -149h-96zM286 209h147l39 219l-74 -89zM509 584l121 107h109l-150 -107h-80z" />
<glyph horiz-adv-x="590" d="M101 458l10 58h90l17 99q26 144 180 144q45 0 73 -16l-10 -57q-42 11 -63 11q-85 0 -100 -82l-17 -99h320l-105 -595q-13 -71 -60.5 -107.5t-123.5 -36.5q-39 0 -68 16l10 57q33 -11 69 -11q78 0 93 82l95 537h-240l-81 -458h-80l81 458h-90zM530 653q0 24 20.5 43 t45.5 19q20 0 33.5 -14t13.5 -34q0 -24 -20.5 -43t-45.5 -19q-20 0 -33.5 14t-13.5 34z" />
<glyph horiz-adv-x="650" d="M101 458l10 58h90l17 99q26 144 180 144q45 0 73 -16l-10 -57q-42 11 -63 11q-85 0 -100 -82l-17 -99h240l25 144h80l-25 -144h120l-10 -58h-121l-80 -458h-80l80 458h-240l-80 -458h-80l80 458h-89z" />
<glyph horiz-adv-x="910" d="M101 458l10 58h90l17 99q26 144 180 144q45 0 73 -16l-10 -57q-42 11 -63 11q-85 0 -100 -82l-17 -99h240l17 99q26 144 180 144q45 0 73 -16l-10 -57q-42 11 -63 11q-85 0 -100 -82l-17 -99h320l-105 -595q-13 -71 -60.5 -107.5t-123.5 -36.5q-39 0 -68 16l10 57 q33 -11 69 -11q78 0 93 82l95 537h-240l-81 -458h-80l81 458h-241l-80 -458h-80l80 458h-89zM850 653q0 24 20.5 43t45.5 19q20 0 33.5 -14t13.5 -34q0 -24 -20.5 -43t-45.5 -19q-20 0 -33.5 14t-13.5 34z" />
<glyph horiz-adv-x="970" d="M101 458l10 58h90l17 99q26 144 180 144q45 0 73 -16l-10 -57q-42 11 -63 11q-85 0 -100 -82l-17 -99h240l17 99q26 144 180 144q45 0 73 -16l-10 -57q-42 11 -63 11q-85 0 -100 -82l-17 -99h240l25 144h80l-25 -144h120l-10 -58h-121l-80 -458h-80l80 458h-239l-81 -458 h-80l81 458h-240l-81 -458h-80l81 458h-90z" />
<glyph horiz-adv-x="700" d="M101 458l10 58h120l25 144h80l-25 -144h260l25 144h80l-25 -144h120l-10 -58h-121l-80 -458h-80l80 458h-260l-80 -458h-80l80 458h-119z" />
<glyph horiz-adv-x="339" d="M120 553q0 93 52 141.5t117 48.5q44 0 71 -34l4 25h64l-51 -294h-64l5 32q-47 -41 -96 -41q-43 0 -72.5 30.5t-29.5 91.5zM187 557q0 -73 58 -73q39 0 82 36l24 137q-28 33 -69 33q-42 0 -68.5 -33t-26.5 -100z" />
<glyph horiz-adv-x="339" d="M118 440l74 424h64l-28 -161q48 40 96 40q43 0 72.5 -30.5t29.5 -91.5q0 -93 -52 -141.5t-117 -48.5q-44 0 -71 34l-4 -25h-64zM196 517q26 -33 68 -33t68.5 33t26.5 100q0 73 -58 73q-39 0 -82 -36z" />
<glyph horiz-adv-x="317" d="M120 555q0 81 49.5 134.5t126.5 53.5q54 0 86 -27.5t28 -72.5h-69q-3 52 -53 52q-41 0 -70.5 -33t-29.5 -108t61 -75q49 0 73 52h69q-13 -45 -54.5 -72.5t-95.5 -27.5q-59 0 -90 33.5t-31 90.5z" />
<glyph horiz-adv-x="339" d="M120 553q0 93 52 141.5t117 48.5q45 0 71 -35l27 156h64l-74 -424h-64l6 32q-49 -41 -97 -41q-43 0 -72.5 30.5t-29.5 91.5zM187 557q0 -73 58 -73q39 0 82 36l24 136q-28 34 -69 34q-42 0 -68.5 -33t-26.5 -100z" />
<glyph horiz-adv-x="318" d="M120 556q0 80 50 133.5t121 53.5q69 0 97.5 -42.5t10.5 -124.5h-211q-1 -7 -1 -23q0 -74 60 -74q43 0 67 41h69q-11 -37 -52 -63t-92 -26q-58 0 -88.5 34t-30.5 91zM197 625h140q12 70 -54 70q-64 0 -86 -70z" />
<glyph horiz-adv-x="220" d="M131 685l8 49h54l8 41q17 98 117 98q26 0 44 -9l-8 -49q-24 6 -38 6q-23 0 -34.5 -11t-16.5 -35l-8 -41h82l-8 -49h-82l-43 -245h-64l43 245h-54z" />
<glyph horiz-adv-x="339" d="M98 407h68q-2 -23 12 -34.5t47 -11.5q74 0 87 78l6 33q-49 -41 -96 -41q-43 0 -72.5 30.5t-29.5 91.5q0 93 52 141.5t117 48.5q44 0 71 -34l4 25h64l-51 -289q-11 -64 -57 -98t-104 -34q-65 0 -95 25.5t-23 68.5zM187 557q0 -73 58 -73q37 0 81 35l24 138q-28 33 -68 33 q-42 0 -68.5 -33t-26.5 -100z" />
<glyph horiz-adv-x="352" d="M118 440l74 424h64l-29 -164q53 43 108 43q45 0 72 -24.5t19 -72.5l-36 -206h-64l31 181q6 36 -5 52.5t-44 16.5q-46 0 -89 -38l-37 -212h-64z" />
<glyph horiz-adv-x="144" d="M126 440l51 294h64l-51 -294h-64zM183 819q0 19 15.5 33t34.5 14q14 0 24.5 -10t10.5 -25q0 -19 -15.5 -33t-34.5 -14q-15 0 -25 10t-10 25z" />
<glyph horiz-adv-x="144" d="M105 321l72 413h64l-72 -413h-64zM183 819q0 19 15.5 33t34.5 14q14 0 24.5 -10t10.5 -25q0 -19 -15.5 -33t-34.5 -14q-15 0 -25 10t-10 25z" />
<glyph horiz-adv-x="291" d="M118 440l74 424h64l-47 -266l133 136h74l-139 -139l102 -155h-73l-97 156l-27 -156h-64z" />
<glyph horiz-adv-x="144" d="M118 440l74 424h64l-74 -424h-64z" />
<glyph horiz-adv-x="552" d="M118 440l51 294h64l-6 -34q53 43 106 43q66 0 85 -45q57 45 119 45q45 0 71 -24t18 -73l-36 -206h-64l31 181q12 69 -47 69q-43 0 -87 -38q0 -1 -0.5 -3t-0.5 -3l-36 -206h-64l31 181q12 69 -47 69q-44 0 -87 -38l6 33l-43 -245h-64z" />
<glyph horiz-adv-x="352" d="M118 440l51 294h64l-6 -34q53 43 108 43q45 0 72 -24.5t19 -72.5l-36 -206h-64l31 181q6 36 -5 52.5t-44 16.5q-46 0 -89 -38l6 33l-43 -245h-64z" />
<glyph horiz-adv-x="343" d="M120 559q0 79 52 131.5t131 52.5q59 0 93 -35t34 -93q0 -79 -51.5 -131.5t-130.5 -52.5q-60 0 -94 35t-34 93zM188 559q0 -80 68 -80q50 0 78.5 36.5t28.5 99.5q0 39 -18 59.5t-50 20.5q-51 0 -79 -36.5t-28 -99.5z" />
<glyph horiz-adv-x="339" d="M97 321l72 413h64l-6 -32q49 41 97 41q43 0 72.5 -30.5t29.5 -91.5q0 -93 -52 -141.5t-117 -48.5q-45 0 -71 35l-25 -145h-64zM195 518q28 -34 69 -34q42 0 68.5 33t26.5 100q0 73 -58 73q-39 0 -82 -36z" />
<glyph horiz-adv-x="339" d="M120 553q0 93 52 141.5t117 48.5q44 0 71 -34l4 25h64l-72 -413h-64l26 150q-48 -40 -96 -40q-43 0 -72.5 30.5t-29.5 91.5zM187 557q0 -73 58 -73q39 0 82 36l24 137q-28 33 -69 33q-42 0 -68.5 -33t-26.5 -100z" />
<glyph horiz-adv-x="234" d="M118 440l51 294h65l-10 -58l3 17q50 50 90 50q24 0 35 -16l-9 -52q-21 9 -39 9q-49 0 -86 -41l-35 -203h-65z" />
<glyph horiz-adv-x="297" d="M113 527h68q-1 -20 13.5 -34t44.5 -14t48.5 13t18.5 34q0 17 -15 25.5t-55 14.5q-48 7 -74 22.5t-26 51.5q0 48 39 75.5t103 27.5q54 0 83.5 -24.5t24.5 -62.5h-69q1 18 -12.5 28.5t-37.5 10.5q-30 0 -48 -10.5t-18 -29.5q0 -16 13.5 -23.5t51.5 -14.5q24 -4 39.5 -8.5 t32.5 -12.5t25.5 -22t8.5 -33q0 -47 -40.5 -78.5t-103.5 -31.5q-61 0 -91 27.5t-24 68.5z" />
<glyph horiz-adv-x="236" d="M131 685l8 49h55l14 82h64l-14 -82h81l-8 -49h-82l-27 -153q-6 -24 -0.5 -36.5t26.5 -12.5q22 0 55 10l-9 -48q-31 -14 -70 -14q-83 0 -68 90l29 164h-54z" />
<glyph horiz-adv-x="348" d="M133 528l36 206h64l-31 -181q-6 -36 4.5 -52.5t42.5 -16.5q44 0 87 38l-5 -33l42 245h64l-51 -294h-64l6 34q-53 -43 -106 -43q-45 0 -71 24t-18 73z" />
<glyph horiz-adv-x="315" d="M139 734h69l29 -155l14 -65l36 65l82 155h65l-169 -294h-54z" />
<glyph horiz-adv-x="485" d="M139 734h68l22 -155l9 -65l31 65l75 155h56l24 -155l10 -65l30 65l75 155h65l-157 -294h-55l-22 152l-9 65l-32 -65l-74 -152h-56z" />
<glyph horiz-adv-x="313" d="M88 440l135 153l-77 141h70l49 -95l80 95h70l-120 -136l86 -158h-70l-58 112l-95 -112h-70z" />
<glyph horiz-adv-x="315" d="M135 321l74 125l-70 288h69l29 -155l14 -65l36 65l82 155h65l-237 -413h-62z" />
<glyph horiz-adv-x="276" d="M98 440l8 49l195 196h-154l8 49h230l-8 -49l-195 -196h160l-8 -49h-236z" />
<glyph horiz-adv-x="339" d="M21 -7q0 93 52 141.5t117 48.5q44 0 71 -34l4 25h64l-51 -294h-64l5 32q-47 -41 -96 -41q-43 0 -72.5 30.5t-29.5 91.5zM88 -3q0 -73 58 -73q39 0 82 36l24 137q-28 33 -69 33q-42 0 -68.5 -33t-26.5 -100z" />
<glyph horiz-adv-x="339" d="M19 -120l74 424h64l-28 -161q48 40 96 40q43 0 72.5 -30.5t29.5 -91.5q0 -93 -52 -141.5t-117 -48.5q-44 0 -71 34l-4 -25h-64zM97 -43q26 -33 68 -33t68.5 33t26.5 100q0 73 -58 73q-39 0 -82 -36z" />
<glyph horiz-adv-x="317" d="M21 -5q0 81 49.5 134.5t126.5 53.5q54 0 86 -27.5t28 -72.5h-69q-3 52 -53 52q-41 0 -70.5 -33t-29.5 -108t61 -75q49 0 73 52h69q-13 -45 -54.5 -72.5t-95.5 -27.5q-59 0 -90 33.5t-31 90.5z" />
<glyph horiz-adv-x="339" d="M21 -7q0 93 52 141.5t117 48.5q45 0 71 -35l27 156h64l-74 -424h-64l6 32q-49 -41 -97 -41q-43 0 -72.5 30.5t-29.5 91.5zM88 -3q0 -73 58 -73q39 0 82 36l24 136q-28 34 -69 34q-42 0 -68.5 -33t-26.5 -100z" />
<glyph horiz-adv-x="318" d="M21 -4q0 80 50 133.5t121 53.5q69 0 97.5 -42.5t10.5 -124.5h-211q-1 -7 -1 -23q0 -74 60 -74q43 0 67 41h69q-11 -37 -52 -63t-92 -26q-58 0 -88.5 34t-30.5 91zM98 65h140q12 70 -54 70q-64 0 -86 -70z" />
<glyph horiz-adv-x="220" d="M32 125l8 49h54l8 41q17 98 117 98q26 0 44 -9l-8 -49q-24 6 -38 6q-23 0 -34.5 -11t-16.5 -35l-8 -41h82l-8 -49h-82l-43 -245h-64l43 245h-54z" />
<glyph horiz-adv-x="339" d="M0 -153h68q-2 -23 12 -34.5t47 -11.5q74 0 87 78l6 33q-49 -41 -96 -41q-43 0 -72.5 30.5t-29.5 91.5q0 93 52 141.5t117 48.5q44 0 71 -34l4 25h64l-51 -289q-11 -64 -57 -98t-104 -34q-65 0 -95 25.5t-23 68.5zM89 -3q0 -73 58 -73q37 0 81 35l24 138q-28 33 -68 33 q-42 0 -68.5 -33t-26.5 -100z" />
<glyph horiz-adv-x="352" d="M19 -120l74 424h64l-29 -164q53 43 108 43q45 0 72 -24.5t19 -72.5l-36 -206h-64l31 181q6 36 -5 52.5t-44 16.5q-46 0 -89 -38l-37 -212h-64z" />
<glyph horiz-adv-x="144" d="M27 -120l51 294h64l-51 -294h-64zM84 259q0 19 15.5 33t34.5 14q14 0 24.5 -10t10.5 -25q0 -19 -15.5 -33t-34.5 -14q-15 0 -25 10t-10 25z" />
<glyph horiz-adv-x="144" d="M7 -239l72 413h64l-72 -413h-64zM85 259q0 19 15.5 33t34.5 14q14 0 24.5 -10t10.5 -25q0 -19 -15.5 -33t-34.5 -14q-15 0 -25 10t-10 25z" />
<glyph horiz-adv-x="291" d="M19 -120l74 424h64l-47 -266l133 136h74l-139 -139l102 -155h-73l-97 156l-27 -156h-64z" />
<glyph horiz-adv-x="144" d="M19 -120l74 424h64l-74 -424h-64z" />
<glyph horiz-adv-x="552" d="M19 -120l51 294h64l-6 -34q53 43 106 43q66 0 85 -45q57 45 119 45q45 0 71 -24t18 -73l-36 -206h-64l31 181q12 69 -47 69q-43 0 -87 -38q0 -1 -0.5 -3t-0.5 -3l-36 -206h-64l31 181q12 69 -47 69q-44 0 -87 -38l6 33l-43 -245h-64z" />
<glyph horiz-adv-x="352" d="M19 -120l51 294h64l-6 -34q53 43 108 43q45 0 72 -24.5t19 -72.5l-36 -206h-64l31 181q6 36 -5 52.5t-44 16.5q-46 0 -89 -38l6 33l-43 -245h-64z" />
<glyph horiz-adv-x="343" d="M21 -1q0 79 52 131.5t131 52.5q59 0 93 -35t34 -93q0 -79 -51.5 -131.5t-130.5 -52.5q-60 0 -94 35t-34 93zM89 -1q0 -80 68 -80q50 0 78.5 36.5t28.5 99.5q0 39 -18 59.5t-50 20.5q-51 0 -79 -36.5t-28 -99.5z" />
<glyph horiz-adv-x="339" d="M-1 -239l72 413h64l-6 -32q49 41 97 41q43 0 72.5 -30.5t29.5 -91.5q0 -93 -52 -141.5t-117 -48.5q-45 0 -71 35l-25 -145h-64zM97 -42q28 -34 69 -34q42 0 68.5 33t26.5 100q0 73 -58 73q-39 0 -82 -36z" />
<glyph horiz-adv-x="339" d="M22 -7q0 93 52 141.5t117 48.5q44 0 71 -34l4 25h64l-72 -413h-64l26 150q-48 -40 -96 -40q-43 0 -72.5 30.5t-29.5 91.5zM89 -3q0 -73 58 -73q39 0 82 36l24 137q-28 33 -69 33q-42 0 -68.5 -33t-26.5 -100z" />
<glyph horiz-adv-x="234" d="M19 -120l51 294h65l-10 -58l3 17q50 50 90 50q24 0 35 -16l-9 -52q-21 9 -39 9q-49 0 -86 -41l-35 -203h-65z" />
<glyph horiz-adv-x="297" d="M14 -33h68q-1 -20 13.5 -34t44.5 -14t48.5 13t18.5 34q0 17 -15 25.5t-55 14.5q-48 7 -74 22.5t-26 51.5q0 48 39 75.5t103 27.5q54 0 83.5 -24.5t24.5 -62.5h-69q1 18 -12.5 28.5t-37.5 10.5q-30 0 -48 -10.5t-18 -29.5q0 -16 13.5 -23.5t51.5 -14.5q24 -4 39.5 -8.5 t32.5 -12.5t25.5 -22t8.5 -33q0 -47 -40.5 -78.5t-103.5 -31.5q-61 0 -91 27.5t-24 68.5z" />
<glyph horiz-adv-x="236" d="M32 125l8 49h55l14 82h64l-14 -82h81l-8 -49h-82l-27 -153q-6 -24 -0.5 -36.5t26.5 -12.5q22 0 55 10l-9 -48q-32 -14 -70 -14q-83 0 -68 90l29 164h-54z" />
<glyph horiz-adv-x="348" d="M34 -32l36 206h64l-31 -181q-6 -36 4.5 -52.5t42.5 -16.5q44 0 87 38l-5 -33l42 245h64l-51 -294h-64l6 34q-53 -43 -106 -43q-45 0 -71 24t-18 73z" />
<glyph horiz-adv-x="315" d="M40 174h69l29 -155l14 -65l36 65l82 155h65l-169 -294h-54z" />
<glyph horiz-adv-x="485" d="M40 174h68l22 -155l9 -65l31 65l75 155h56l24 -155l10 -65l30 65l75 155h65l-157 -294h-55l-22 152l-9 65l-32 -65l-74 -152h-56z" />
<glyph horiz-adv-x="313" d="M-11 -120l135 153l-77 141h70l49 -95l80 95h70l-120 -136l86 -158h-70l-58 112l-95 -112h-70z" />
<glyph horiz-adv-x="315" d="M37 -239l74 125l-70 288h69l29 -155l14 -65l36 65l82 155h65l-237 -413h-62z" />
<glyph horiz-adv-x="276" d="M-1 -120l8 49l195 196h-154l8 49h230l-8 -49l-195 -196h160l-8 -49h-236z" />
<glyph d="M86 205h93q-12 -126 92 -148l48 272q-36 9 -62.5 20t-53.5 29t-41 46.5t-14 66.5q0 92 68 152.5t171 69.5l19 107h78l-19 -108q90 -11 135 -64.5t33 -142.5h-93q11 117 -87 139l-45 -253q38 -9 65.5 -20t56 -29.5t44 -47.5t15.5 -68q0 -95 -74 -162t-178 -77l-19 -107 h-78l19 108q-91 11 -138 67t-35 150zM238 509q0 -43 25 -65.5t70 -34.5l42 237q-61 -7 -99 -41.5t-38 -95.5zM349 54q64 9 106.5 49t42.5 105q0 45 -27 68t-77 36z" />
<glyph d="M118 192q0 135 64.5 228t177.5 108l19 108h78l-19 -107q72 -11 111.5 -57t35.5 -116h-89q1 94 -69 112l-73 -420q75 18 107 112h89q-19 -69 -75.5 -115.5t-131.5 -56.5l-19 -108h-78l19 108q-74 11 -110.5 64.5t-36.5 139.5zM204 192q0 -119 72 -142l73 416 q-64 -17 -104.5 -87.5t-40.5 -186.5z" />
<glyph d="M40 0l12 67h90l40 227h-90l12 67h90l26 148q17 96 84.5 151t156.5 55q90 0 142 -50t40 -140h-93q5 66 -25.5 94.5t-75.5 28.5q-51 0 -90 -30t-51 -97l-28 -160h224l-12 -67h-224l-40 -227h324l-12 -67h-500z" />
<glyph d="M100 94l11 67h180l24 133h-180l12 67h170l-159 339h89l129 -293l223 293h89l-265 -339h170l-12 -67h-180l-24 -133h180l-11 -67h-180l-17 -94h-86l17 94h-180z" />
<glyph d="M-49 -43h93q-8 -113 81 -113q44 0 79.5 30t47.5 97l43 243h-160l12 67h160l40 228q17 99 69.5 152.5t131.5 53.5q81 0 115.5 -41t27.5 -109h-93q0 44 -13 63.5t-49 19.5q-40 0 -64.5 -28.5t-36.5 -98.5l-42 -240h160l-12 -67h-160l-41 -231q-17 -96 -80.5 -151 t-145.5 -55q-86 0 -129.5 47t-33.5 133z" />
<glyph d="M78 214l12 67h50q3 67 17 133h-44l12 67h52q38 109 110.5 171.5t172.5 62.5q199 0 193 -235h-99q3 90 -21 129t-85 39q-59 0 -106.5 -43.5t-75.5 -123.5h169l-12 -67h-176q-13 -66 -16 -133h169l-12 -67h-158q7 -162 113 -162q61 0 98.5 39t66.5 129h99 q-77 -235 -276 -235q-92 0 -139 60.5t-52 168.5h-62z" />
<glyph d="M31 0l123 700h152q96 0 145 -42.5t49 -145.5q0 -100 -77 -315h-73q40 119 57 183.5t17 114.5q0 71 -33 104.5t-106 33.5h-64l-112 -633h-78zM181 0l89 502h78l-77 -435h64q70 0 117.5 32.5t74 99.5t37.5 155t11 214q0 78 -2 132h73q3 -39 3 -134q0 -157 -22 -268 t-64.5 -175.5t-98.5 -93.5t-131 -29h-152z" />
<glyph d="M10 -120l103 229q-31 67 -31 158q0 173 86 295t217 147l50 111h83l-48 -106q39 -3 70 -15l55 121h83l-73 -162q61 -62 58 -178h-99q2 42 -6 74l-227 -502q133 2 187 168h99q-38 -117 -118 -176t-183 -59h-15l-48 -105h-83l55 121q-32 13 -60 37l-72 -158h-83zM165 266 q0 -15 2 -39l182 402q-79 -35 -131.5 -128t-52.5 -235zM200 116q20 -32 55 -49l253 561q-27 18 -68 20z" />
<glyph d="M30 0l91 516h80l-9 -50q68 65 125 65q79 0 88 -70q61 58 115 68l76 107h81l-85 -119q44 -27 31 -105l-73 -412h-80l69 392q6 29 -1 49l-173 -241l-35 -200h-80l9 51l-115 -161h-81l222 311l34 191q13 72 -38 72q-43 0 -99 -54l-72 -410h-80zM392 351l76 105 q-31 -12 -65 -45z" />
<glyph d="M59 220l12 67h59l24 133h-60l12 67h60l37 213h98l61 -213h166l37 213h78l-37 -213h60l-12 -67h-60l-24 -133h61l-12 -67h-60l-39 -220h-98l-63 220h-162l-39 -220h-78l39 220h-60zM208 287h132l-37 133h-71zM243 487h41l-26 90zM381 420l38 -133h73l24 133h-135zM438 220 l28 -97l15 97h-43z" />
<glyph d="M135 483l12 67h317q-17 83 -131 83h-171l11 67h111h376l-11 -67h-138q35 -34 44 -83h79l-12 -67h-68q-14 -100 -95.5 -151.5t-188.5 -51.5l239 -280h-113l-233 280l12 67h107q162 0 182 136h-329z" />
<glyph d="M44 220l12 67h86l5 133h-68l12 67h59l8 213h76l-15 -213h97l70 213h85l-5 -213h92l57 213h73l-62 -213h55l-12 -67h-62l-39 -133h78l-12 -67h-85l-64 -220h-80l2 220h-121l-75 -220h-80l8 220h-95zM192 108l36 112h-27zM206 287h44l44 133h-79zM309 287h99l2 133h-56z M377 487h33l3 107zM456 104l31 116h-26zM462 287h43l35 133h-75z" />
<glyph d="M60 0l12 67h500l-12 -67h-500zM116 304q0 66 23 119t60 84t80.5 47.5t87.5 16.5q42 0 74.5 -17t47.5 -44l18 102h-130l11 63h130l12 69h80l-12 -69h81l-11 -63h-81l-83 -472h-80l10 58v-1q-67 -72 -161 -72q-65 0 -111 46t-46 133zM203 311q0 -60 27 -89.5t68 -29.5 q77 0 146 61l39 223l-5 -28q-44 56 -120 56q-59 0 -107 -49t-48 -144z" />
<glyph d="M79 334l12 67h89l53 299h86l-53 -299h4l290 299h97l-299 -299h253l-12 -67h-242l215 -334h-113l-204 333l-59 -333h-86l59 334h-90z" />
<glyph d="M152 144l13 71l141 60l16 94l-141 -60l13 71l141 60l34 193h-198l11 67h482l-11 -67h-198l-27 -154l140 60l-12 -71l-141 -60l-16 -94l140 60l-13 -71l-140 -59l-43 -244h-86l36 204z" />
<glyph d="M99 446l11 67h80l33 187h162q90 0 151 -47.5t61 -136.5v-3h71l-11 -67h-69q-24 -89 -104 -137.5t-176 -48.5h-76l-46 -260h-86l78 446h-79zM244 327h76q66 0 113 30t64 89h-232zM277 513h229q-1 60 -36 90t-96 30h-76z" />
<glyph d="M83 141q0 111 107 173h-95l12 67h244q46 17 73.5 29t58 32t45 46t14.5 60q0 100 -123 100q-139 0 -173 -123h-93q20 88 92.5 139t185.5 51q97 0 148.5 -42.5t51.5 -113.5q0 -114 -111 -178h107l-12 -67h-256q-45 -16 -72.5 -28t-57.5 -31.5t-44 -45t-14 -57.5 q0 -100 124 -100q149 0 183 123h93q-20 -87 -97 -138.5t-191 -51.5q-96 0 -148 43t-52 113z" />
<glyph d="M82 267q0 179 91 302.5t228 142.5l19 108h78l-19 -107q88 -9 137.5 -67.5t46.5 -165.5h-99q4 144 -97 165l-104 -590q110 21 155 165h99q-35 -107 -105 -165.5t-161 -67.5l-19 -107h-78l19 108q-92 15 -141.5 88.5t-49.5 190.5zM175 266q0 -176 110 -208l104 585 q-90 -21 -152 -118.5t-62 -258.5z" />
<glyph d="M80 0l123 700h172l21 120h78l-21 -121q77 -6 126 -41.5t49 -106.5q0 -66 -44.5 -120t-103.5 -69q52 -5 87 -36.5t35 -91.5q0 -103 -76 -166.5t-197 -67.5l-21 -120h-78l21 120h-171zM178 67h85l45 252h-86zM234 386h85l44 247h-85zM341 67q89 3 129.5 46t40.5 112 q0 89 -126 94zM398 388q65 9 102 50t37 105q0 79 -96 89z" />
<glyph d="M47 120l102 86q-26 49 -26 111q0 119 78 203l-65 80l51 47l68 -83q68 44 152 44q80 0 131 -45l99 84l43 -47l-102 -87q26 -47 26 -110q0 -119 -79 -203l66 -80l-51 -47l-68 82q-68 -43 -152 -43q-80 0 -132 44l-98 -83zM208 315q0 -70 32.5 -107t89.5 -37q83 0 136 63 t53 171q0 70 -32.5 107t-89.5 37q-83 0 -136 -63t-53 -171z" />
<glyph d="M57 0l84 194h-80l12 67h97l75 173h-91l11 67h109l86 199h81l-86 -199h144l86 199h81l-86 -199h81l-11 -67h-99l-75 -173h93l-12 -67h-110l-84 -194h-81l84 194h-144l-84 -194h-81zM251 261h144l75 173h-144z" />
<glyph horiz-adv-x="524" d="M78 159h86q-7 -87 69 -109l35 201q-66 15 -104 42.5t-38 84.5q0 71 55.5 120.5t140.5 57.5l14 80h77l-14 -82q76 -10 111.5 -52t27.5 -111h-86q7 82 -64 101l-33 -184q32 -8 55.5 -17t46 -24.5t34.5 -39t12 -54.5q0 -74 -59.5 -125.5t-144.5 -60.5l-14 -80h-77l14 81 q-78 10 -116 54t-28 117zM209 399q0 -51 72 -74l30 171q-44 -7 -73 -32.5t-29 -64.5zM309 46q47 8 79 35.5t32 70.5q0 56 -78 81z" />
<glyph horiz-adv-x="453" d="M80 152q0 102 49 174t142 86l14 81h77l-14 -81q57 -9 87 -44.5t27 -88.5h-80q1 65 -44 76l-55 -310q50 11 71 76h80q-15 -53 -57.5 -88.5t-103.5 -44.5l-14 -81h-77l14 81q-116 22 -116 164zM158 151q0 -84 49 -103l54 306q-103 -28 -103 -203z" />
<glyph horiz-adv-x="462" d="M20 0l11 60h66l28 164h-66l11 60h66l19 110q14 76 70.5 119.5t128.5 43.5q77 0 118 -38.5t32 -111.5h-86q5 91 -74 91q-39 0 -69 -23t-38 -71l-21 -120h174l-11 -60h-173l-29 -164h254l-11 -60h-400z" />
<glyph horiz-adv-x="532" d="M104 69l11 60h139l16 95h-139l11 60h122l-124 259h91l101 -225l171 225h81l-207 -259h122l-11 -60h-138l-16 -95h138l-11 -60h-138l-12 -69h-80l12 69h-139z" />
<glyph horiz-adv-x="529" d="M-26 -34h86q-4 -83 63 -83q80 0 97 94l32 185h-120l10 60h121l30 172q14 76 67.5 119.5t122.5 43.5t108 -37.5t31 -104.5h-86q4 83 -63 83q-80 0 -97 -94l-32 -182h123l-10 -60h-124l-30 -175q-14 -76 -67.5 -119.5t-122.5 -43.5t-108 37.5t-31 104.5z" />
<glyph horiz-adv-x="558" d="M49 162l10 60h54q1 45 13 95h-50l10 60h58q34 83 99 131.5t153 48.5q82 0 131 -47.5t47 -137.5h-91q2 67 -22.5 96.5t-74.5 29.5q-51 0 -91.5 -31.5t-64.5 -89.5h160l-10 -60h-169q-10 -43 -12 -95h164l-10 -60h-152q15 -118 105 -118q101 0 141 127h91q-30 -90 -96 -138 t-147 -48q-79 0 -125 47t-55 130h-66z" />
<glyph horiz-adv-x="627" d="M90 0l96 543h151q83 0 124 -33.5t41 -114.5q0 -76 -60 -242h-69q57 162 57 224q0 53 -27 79.5t-85 26.5h-71l-17 -94h134l-58 -329h66q102 0 144.5 90t42.5 282q0 86 -1 111h69q2 -46 2 -110q0 -160 -31 -257t-87 -136.5t-142 -39.5h-146l67 379h-62l-66 -379h-72z" />
<glyph horiz-adv-x="569" d="M29 -93l88 175q-26 54 -26 126q0 141 71 237.5t193 109.5l41 81h77l-42 -82q24 -4 45 -12l48 94h77l-66 -131q51 -50 50 -133h-91q1 22 -4 45l-188 -373q52 1 94 31.5t62 95.5h91q-29 -89 -102.5 -137.5t-157.5 -48.5h-16l-40 -78h-76l47 93q-25 12 -40 24l-59 -117h-76z M167 209q0 -18 1 -26l154 306q-70 -22 -112.5 -95.5t-42.5 -184.5zM198 90q13 -18 35 -31l213 422q-19 12 -43 15z" />
<glyph horiz-adv-x="780" d="M80 0l71 400h76l-10 -52q76 64 148 64q88 0 108 -66q69 57 145 65l75 82h81l-82 -90q73 -28 55 -134l-47 -269h-76l45 253q14 77 -32 91l-184 -201l-25 -143h-76l7 41l-115 -126h-81l216 235l18 103q8 49 -6 72t-57 23q-63 0 -126 -55l-52 -293h-76zM472 252l77 84 q-36 -13 -71 -41q0 -13 -3 -26z" />
<glyph horiz-adv-x="586" d="M39 162l10 60h80l17 95h-80l10 60h81l29 166h88l66 -166h151l29 166h72l-29 -166h79l-10 -60h-80l-17 -95h80l-10 -60h-80l-29 -162h-88l-64 162h-154l-28 -162h-72l29 162h-80zM201 222h119l-37 95h-65zM228 377h31l-22 55zM363 317l38 -95h63l16 95h-117zM424 162 l21 -52l8 52h-29z" />
<glyph horiz-adv-x="490" d="M104 365l11 60h247q-14 58 -100 58h-137l11 60h89h301l-11 -60h-94q23 -26 27 -58h57l-11 -60h-48q-14 -71 -73.5 -108t-144.5 -40l196 -217h-104l-191 217l11 60h86q116 0 135 88h-257z" />
<glyph horiz-adv-x="770" d="M39 162l10 60h117l-11 95h-89l10 60h73l-19 166h88l11 -166h142l77 166h76l19 -166h139l66 166h84l-73 -166h67l-10 -60h-84l-42 -95h109l-10 -60h-125l-72 -162h-72l-19 162h-164l-74 -162h-72l-18 162h-134zM233 317l7 -95h60l44 95h-111zM243 162l3 -60l27 60h-30z M365 222h129l-11 95h-75zM435 377h40l-8 70zM550 317l10 -95h61l37 95h-108zM567 162l6 -61l24 61h-30z" />
<glyph horiz-adv-x="469" d="M50 0l11 60h399l-11 -60h-399zM94 237q0 98 61 152t138 54q68 0 96 -48l14 81h-102l10 56h102l8 45h76l-8 -45h54l-10 -56h-54l-65 -367h-76l8 44q-53 -56 -126 -56q-52 0 -89 36t-37 104zM173 240q0 -83 68 -83q60 0 114 47l24 135q-35 44 -94 44q-46 0 -79 -36 t-33 -107z" />
<glyph horiz-adv-x="498" d="M63 255l11 60h72l40 228h80l-38 -216l212 216h93l-232 -228h195l-11 -60h-193l176 -255h-97l-158 241l-43 -241h-80l45 255h-72z" />
<glyph horiz-adv-x="444" d="M102 99l11 68l106 44l13 72l-106 -44l12 68l106 44l23 132h-152l11 60h384l-11 -60h-152l-17 -96l105 43l-11 -67l-106 -44l-13 -73l106 44l-11 -67l-107 -44l-31 -179h-80l25 143z" />
<glyph horiz-adv-x="514" d="M78 342l11 60h72l25 141h162q70 0 118 -37t50 -104h59l-11 -60h-55q-20 -68 -83.5 -106t-138.5 -38h-82l-35 -198h-80l60 342h-72zM215 258h82q105 0 128 84h-195zM241 402h191q-3 81 -95 81h-82z" />
<glyph horiz-adv-x="535" d="M92 239l11 60h204q70 25 105.5 51t35.5 73q0 34 -23.5 54.5t-65.5 20.5q-99 0 -127 -88h-86q16 68 74 107.5t149 39.5q77 0 118.5 -33.5t41.5 -88.5q0 -88 -82 -136h91l-11 -60h-225q-62 -22 -94.5 -48.5t-32.5 -70.5q0 -34 23.5 -55t65.5 -21q107 0 134 89h86 q-15 -67 -77 -107.5t-154 -40.5q-77 0 -118.5 34t-41.5 89q0 83 74 131h-75z" />
<glyph horiz-adv-x="569" d="M91 208q0 139 69 235t188 111l14 82h77l-14 -81q71 -10 116.5 -57t43.5 -126h-91q3 103 -80 122l-78 -446q89 19 122 123h91q-26 -79 -87.5 -126.5t-136.5 -57.5l-14 -80h-77l14 81q-77 13 -117 71t-40 149zM177 209q0 -131 82 -159l78 443q-73 -18 -116.5 -92.5 t-43.5 -191.5z" />
<glyph horiz-adv-x="550" d="M90 0l96 543h137l16 93h77l-16 -94q68 -5 108 -35t40 -87q0 -53 -33.5 -90t-81.5 -49q40 -4 68 -31.5t28 -75.5q0 -81 -60.5 -126t-164.5 -48l-16 -93h-77l16 93h-137zM181 60h57l32 183h-57zM224 303h57l31 180h-57zM315 60q73 2 101.5 27.5t28.5 80.5q0 70 -98 75z M358 304q106 11 106 109q0 61 -75 69z" />
<glyph horiz-adv-x="564" d="M68 99l83 68q-20 37 -20 82q0 83 56 145l-56 65l58 48l57 -66q55 30 119 30q61 0 106 -32l82 68l42 -48l-83 -69q19 -36 19 -81q0 -83 -57 -145l56 -65l-57 -48l-57 67q-54 -31 -119 -31q-62 0 -105 32l-83 -68zM210 249q0 -54 27 -81.5t70 -27.5q59 0 102.5 44t43.5 125 q0 54 -27.5 81.5t-69.5 27.5q-60 0 -103 -44t-43 -125z" />
<glyph horiz-adv-x="611" d="M76 146l10 60h95l56 126h-88l10 60h104l67 151h75l-67 -151h137l67 151h75l-67 -151h80l-10 -60h-96l-56 -126h89l-10 -60h-105l-65 -146h-75l65 146h-137l-65 -146h-75l65 146h-79zM256 206h137l56 126h-137z" />
<glyph horiz-adv-x="620" d="M101 258q0 197 93 327t242 130q99 0 152.5 -73.5t53.5 -199.5q0 -197 -92.5 -327t-242.5 -130q-99 0 -152.5 73.5t-53.5 199.5zM193 255q0 -51 10 -94l297 456q-31 31 -76 31q-97 0 -164 -105t-67 -288zM244 82q30 -30 75 -30q97 0 164 105t67 288q0 51 -10 94z" />
<glyph horiz-adv-x="570" d="M92 213q0 158 79.5 263t215.5 105q93 0 142 -61.5t49 -166.5q0 -158 -80 -263t-216 -105q-93 0 -141.5 61.5t-48.5 166.5zM181 207q0 -159 112 -159q92 0 144 80.5t52 230.5q0 159 -113 159q-92 0 -143.5 -80.5t-51.5 -230.5z" />
<glyph horiz-adv-x="570" d="M92 213q0 158 79.5 263t215.5 105q93 0 142 -61.5t49 -166.5q0 -158 -80 -263t-216 -105q-93 0 -141.5 61.5t-48.5 166.5zM181 207q0 -49 10 -80l243 377q-25 14 -58 14q-92 0 -143.5 -80.5t-51.5 -230.5zM236 62q25 -14 57 -14q92 0 144 80.5t52 230.5q0 49 -10 80z" />
<glyph horiz-adv-x="375" d="M111 401l13 75l177 90h84l-100 -566h-84l86 488z" />
<glyph horiz-adv-x="507" d="M55 0l12 69q205 134 258 176q101 81 116 154q3 15 3 32q0 87 -94 87q-52 0 -92.5 -32t-58.5 -100h-91q21 93 88.5 144t164.5 51q84 0 128.5 -37.5t44.5 -104.5q0 -91 -71 -164t-273 -206h299l-12 -69h-422z" />
<glyph horiz-adv-x="568" d="M59 51h91q-13 -137 128 -137q76 0 125 44t49 132q0 108 -150 108h-71l11 63h71q85 0 131 42.5t46 116.5q0 98 -107 98q-128 0 -169 -137h-91q24 92 98.5 146t172.5 54q86 0 136.5 -41.5t50.5 -115.5q0 -64 -44 -118.5t-117 -72.5q63 -9 93 -49t30 -91q0 -103 -83 -172.5 t-193 -69.5q-111 0 -165.5 53t-42.5 147z" />
<glyph horiz-adv-x="556" d="M30 0l12 69l302 497h92l-302 -497h204l33 187h84l-33 -187h106l-12 -69h-106l-24 -134h-84l24 134h-296z" />
<glyph horiz-adv-x="543" d="M55 31h91q-9 -117 116 -117q78 0 125.5 56.5t47.5 172.5q0 69 -29 97t-82 28q-85 0 -150 -80h-74l67 378h395l-12 -69h-321l-41 -231q69 65 159 65q80 0 129 -47.5t49 -141.5q0 -134 -80.5 -212.5t-193.5 -78.5q-101 0 -153.5 47.5t-42.5 132.5z" />
<glyph horiz-adv-x="586" d="M97 233q0 240 93 383t255 143q90 0 140 -47.5t43 -132.5h-91q1 34 -9 58.5t-27 36.5t-33.5 17t-33.5 5q-95 0 -158 -85.5t-82 -243.5q38 39 95 63.5t113 24.5q84 0 131.5 -47.5t47.5 -137.5q0 -128 -87 -206.5t-200 -78.5q-98 0 -147.5 64.5t-49.5 183.5zM186 231 q0 -183 119 -183q83 0 134 56t51 164q0 124 -111 124q-50 0 -103 -26.5t-88 -65.5q-2 -44 -2 -69z" />
<glyph horiz-adv-x="482" d="M90 -134l369 631h-331l12 69h412l-12 -69l-364 -631h-86z" />
<glyph horiz-adv-x="608" d="M82 169q0 79 55 145t130 83q-45 17 -72.5 53t-27.5 88q0 97 77 159t194 62q93 0 148 -45t55 -121q0 -74 -45.5 -124t-114.5 -72q52 -13 84 -60t32 -106q0 -113 -87 -179.5t-209 -66.5q-96 0 -157.5 48.5t-61.5 135.5zM172 174q0 -62 38.5 -94t101.5 -32q83 0 139 46.5 t56 134.5q0 57 -35.5 95t-103.5 38q-89 0 -142.5 -56.5t-53.5 -131.5zM257 539q0 -50 30.5 -82t91.5 -32q81 0 126 48t45 115q0 54 -34 81t-89 27q-73 0 -121.5 -40t-48.5 -117z" />
<glyph horiz-adv-x="586" d="M65 31h91q-1 -34 9 -58.5t27.5 -36.5t34 -17t33.5 -5q95 0 156 74t78 230q-38 -38 -94.5 -62.5t-112.5 -24.5q-84 0 -132 44t-48 132q0 128 84.5 201t199.5 73q98 0 148 -64t50 -184q0 -228 -90.5 -355t-249.5 -127q-90 0 -140.5 47.5t-43.5 132.5zM198 314 q0 -120 112 -120q49 0 101.5 25.5t87.5 63.5q1 17 1 52q0 183 -120 183q-84 0 -133 -49.5t-49 -154.5z" />
<glyph d="M100 251q0 198 87.5 331t238.5 133q97 0 147 -71t50 -195q0 -198 -87.5 -331t-238.5 -133q-97 0 -147 71t-50 195zM192 247q0 -98 30.5 -146.5t86.5 -48.5q99 0 160.5 108t61.5 293q0 195 -117 195q-99 0 -160.5 -108t-61.5 -293z" />
<glyph d="M100 251q0 198 87.5 331t238.5 133q97 0 147 -71t50 -195q0 -198 -87.5 -331t-238.5 -133q-97 0 -147 71t-50 195zM192 247q0 -45 6 -79l291 448q-28 32 -75 32q-99 0 -160.5 -108t-61.5 -293zM235 84q28 -32 74 -32q99 0 160.5 108t61.5 293q0 45 -6 78z" />
<glyph d="M107 0l12 67h168l98 555l-184 -87l14 75l183 90h86l-111 -633h168l-12 -67h-254h-168z" />
<glyph d="M95 0l12 67q210 173 260 219q133 123 156 213q6 23 6 47q0 51 -27.5 76.5t-74.5 25.5q-54 0 -100.5 -38.5t-67.5 -119.5h-93q23 106 98.5 165.5t174.5 59.5q85 0 132.5 -42t47.5 -119q0 -55 -24 -108t-80 -115t-120.5 -119.5t-172.5 -144.5h327l-12 -67h-442z" />
<glyph d="M103 185h93q-6 -68 30 -100.5t96 -32.5q70 0 121.5 47.5t51.5 120.5q0 50 -37 80t-113 30h-71l12 67h71q82 0 129 44t47 108q0 49 -29.5 74t-77.5 25q-53 0 -99 -33t-67 -100h-93q24 92 98.5 146t172.5 54q86 0 136 -41.5t50 -115.5q0 -64 -43.5 -118.5t-116.5 -72.5 q63 -9 92.5 -48.5t29.5 -91.5q0 -103 -83 -172.5t-193 -69.5q-111 0 -165 53t-42 147z" />
<glyph d="M85 143l12 67l300 490h88l-300 -490h212l32 180h86l-32 -180h100l-12 -67h-100l-25 -143h-86l25 143h-300z" />
<glyph d="M109 165h93q-4 -59 29.5 -86t84.5 -27q76 0 124.5 57.5t48.5 167.5q0 121 -104 121q-94 0 -155 -76h-76l66 378h395l-11 -67h-319l-43 -244q69 76 167 76q78 0 124 -46.5t46 -138.5q0 -137 -81 -216t-194 -79q-101 0 -153 47.5t-42 132.5z" />
<glyph d="M105 226q0 138 42 249t120.5 175.5t178.5 64.5q88 0 135.5 -44t42.5 -116h-93q-1 47 -27.5 70t-69.5 23q-86 0 -146 -78.5t-81 -208.5q39 41 94.5 67.5t110.5 26.5q84 0 131.5 -47.5t47.5 -137.5q0 -128 -87 -206.5t-200 -78.5q-93 0 -146 65t-53 176zM197 233 q0 -90 31 -135.5t88 -45.5q81 0 132.5 56t51.5 155q0 61 -28.5 93t-83.5 32q-110 0 -189 -93q-2 -40 -2 -62z" />
<glyph d="M154 0l389 633h-351l11 67h432l-11 -67l-384 -633h-86z" />
<glyph d="M81 152q0 79 49.5 136t126.5 75q-96 36 -96 134q0 99 74 158.5t191 59.5q92 0 145 -42.5t53 -117.5q0 -74 -42 -121.5t-111 -70.5q52 -13 82.5 -53t30.5 -96q0 -113 -81 -171t-206 -58q-98 0 -157 41.5t-59 125.5zM172 161q0 -109 137 -109q83 0 134 39t51 121 q0 53 -34 83.5t-103 30.5q-92 0 -138.5 -46t-46.5 -119zM252 499q0 -48 28.5 -77t88.5 -29q84 0 124 44.5t40 109.5q0 49 -32 75t-87 26q-71 0 -116.5 -38.5t-45.5 -110.5z" />
<glyph d="M99 165h93q-3 -60 26.5 -86.5t75.5 -26.5q89 0 150.5 84t80.5 222q-39 -41 -94 -67t-110 -26q-84 0 -132 44.5t-48 131.5q0 123 85.5 198.5t198.5 75.5q99 0 149.5 -63.5t50.5 -177.5q0 -79 -14 -151.5t-42 -134t-68.5 -107t-96.5 -71t-122 -25.5q-91 0 -141.5 47.5 t-41.5 132.5zM232 449q0 -117 113 -117q55 0 103.5 25t82.5 66q1 14 1 44q0 90 -31 135.5t-88 45.5q-80 0 -130.5 -52.5t-50.5 -146.5z" />
<glyph d="M107 213q0 158 79.5 263t215.5 105q93 0 142 -61.5t49 -166.5q0 -158 -80 -263t-216 -105q-93 0 -141.5 61.5t-48.5 166.5zM196 207q0 -159 112 -159q92 0 144 80.5t52 230.5q0 159 -113 159q-92 0 -143.5 -80.5t-51.5 -230.5z" />
<glyph d="M107 213q0 158 79.5 263t215.5 105q93 0 142 -61.5t49 -166.5q0 -158 -80 -263t-216 -105q-93 0 -141.5 61.5t-48.5 166.5zM196 207q0 -49 10 -80l243 377q-25 14 -58 14q-92 0 -143.5 -80.5t-51.5 -230.5zM251 62q25 -14 57 -14q92 0 144 80.5t52 230.5q0 49 -10 80z " />
<glyph d="M101 0l12 69h180l74 418l-196 -90l14 79l196 90h84l-88 -497h170l-12 -69h-254h-180z" />
<glyph d="M105 0l12 69q205 134 258 176q101 81 116 154q3 15 3 32q0 87 -94 87q-52 0 -92.5 -32t-58.5 -100h-91q21 93 88.5 144t164.5 51q84 0 128.5 -37.5t44.5 -104.5q0 -91 -71 -164t-273 -206h299l-12 -69h-422z" />
<glyph d="M70 51h91q-13 -137 128 -137q76 0 125 44t49 132q0 108 -150 108h-71l11 63h71q85 0 131 42.5t46 116.5q0 98 -107 98q-128 0 -169 -137h-91q24 92 98.5 146t172.5 54q86 0 136.5 -41.5t50.5 -115.5q0 -64 -44 -118.5t-117 -72.5q63 -9 93 -49t30 -91q0 -103 -83 -172.5 t-193 -69.5q-111 0 -165.5 53t-42.5 147z" />
<glyph d="M60 0l12 69l302 497h86l-302 -497h210l33 187h84l-33 -187h106l-12 -69h-106l-24 -134h-84l24 134h-296z" />
<glyph d="M75 31h91q-9 -117 116 -117q78 0 125.5 56.5t47.5 172.5q0 69 -29 97t-82 28q-85 0 -150 -80h-74l67 378h395l-12 -69h-321l-41 -231q69 65 159 65q80 0 129 -47.5t49 -141.5q0 -134 -80.5 -212.5t-193.5 -78.5q-101 0 -153.5 47.5t-42.5 132.5z" />
<glyph d="M97 233q0 240 93 383t255 143q90 0 140 -47.5t43 -132.5h-91q1 34 -9 58.5t-27 36.5t-33.5 17t-33.5 5q-95 0 -158 -85.5t-82 -243.5q38 39 95 63.5t113 24.5q84 0 131.5 -47.5t47.5 -137.5q0 -128 -87 -206.5t-200 -78.5q-98 0 -147.5 64.5t-49.5 183.5zM186 231 q0 -183 119 -183q83 0 134 56t51 164q0 124 -111 124q-50 0 -103 -26.5t-88 -65.5q-2 -44 -2 -69z" />
<glyph d="M144 -134l389 631h-371l12 69h452l-12 -69l-384 -631h-86z" />
<glyph d="M78 169q0 79 55 145t130 83q-45 17 -72.5 53t-27.5 88q0 97 77 159t194 62q93 0 148 -45t55 -121q0 -74 -45.5 -124t-114.5 -72q52 -13 84 -60t32 -106q0 -113 -87 -179.5t-209 -66.5q-96 0 -157.5 48.5t-61.5 135.5zM168 174q0 -62 38.5 -94t101.5 -32q83 0 139 46.5 t56 134.5q0 57 -35.5 95t-103.5 38q-89 0 -142.5 -56.5t-53.5 -131.5zM253 539q0 -50 30.5 -82t91.5 -32q81 0 126 48t45 115q0 54 -34 81t-89 27q-73 0 -121.5 -40t-48.5 -117z" />
<glyph d="M65 31h91q-1 -34 9 -58.5t27.5 -36.5t34 -17t33.5 -5q95 0 156 74t78 230q-38 -38 -94.5 -62.5t-112.5 -24.5q-84 0 -132 44t-48 132q0 128 84.5 201t199.5 73q98 0 148 -64t50 -184q0 -228 -90.5 -355t-249.5 -127q-90 0 -140.5 47.5t-43.5 132.5zM198 314 q0 -120 112 -120q49 0 101.5 25.5t87.5 63.5q1 17 1 52q0 183 -120 183q-84 0 -133 -49.5t-49 -154.5z" />
<glyph horiz-adv-x="540" d="M90 206q0 151 78 251t200 100q85 0 131 -59.5t46 -160.5q0 -151 -78 -251.5t-200 -100.5q-84 0 -130.5 60t-46.5 161zM176 206q0 -79 27.5 -120.5t74.5 -41.5q75 0 128 78.5t53 213.5q0 80 -27.5 121t-74.5 41q-75 0 -128 -78.5t-53 -213.5z" />
<glyph horiz-adv-x="540" d="M90 206q0 151 78 251t200 100q85 0 131 -59.5t46 -160.5q0 -151 -78 -251.5t-200 -100.5q-84 0 -130.5 60t-46.5 161zM176 206q0 -40 8 -74l229 346q-25 20 -56 20q-75 0 -128 -78.5t-53 -213.5zM222 64q25 -20 56 -20q75 0 128 78.5t53 213.5q0 40 -8 74z" />
<glyph horiz-adv-x="343" d="M111 403l12 70l146 70h80l-96 -543h-80l83 470z" />
<glyph horiz-adv-x="448" d="M62 0l11 60q181 145 231 194q94 93 94 167q0 37 -21 57t-54 20q-39 0 -71.5 -29.5t-48.5 -88.5h-86q18 82 79 129.5t138 47.5q69 0 107 -32.5t38 -92.5q0 -81 -68 -161.5t-233 -210.5h241l-11 -60h-346z" />
<glyph horiz-adv-x="484" d="M75 143h86q-2 -48 24.5 -73.5t71.5 -25.5q58 0 94.5 32t36.5 91q0 38 -29.5 61.5t-90.5 23.5h-57l11 60h57q65 0 102 33t37 80q0 35 -22 54t-60 19q-40 0 -74.5 -25t-50.5 -74h-86q18 71 81 114.5t141 43.5q75 0 115.5 -31.5t40.5 -89.5q0 -51 -35 -94.5t-93 -57.5 q50 -6 74 -38t24 -73q0 -81 -66 -134.5t-161 -53.5q-87 0 -133.5 43t-37.5 115z" />
<glyph horiz-adv-x="471" d="M50 112l11 60l236 371h86l-236 -371h154l23 130h80l-23 -130h81l-11 -60h-80l-20 -112h-80l20 112h-241z" />
<glyph horiz-adv-x="464" d="M73 128h86q-1 -42 23.5 -63t62.5 -21q58 0 93.5 42t35.5 119q0 96 -83 96q-55 0 -111 -51h-72l52 293h328l-11 -60h-256l-30 -172q49 49 120 49q70 0 109 -37t39 -110q0 -107 -65 -167.5t-160 -60.5q-80 0 -124.5 38.5t-36.5 104.5z" />
<glyph horiz-adv-x="501" d="M85 179q0 163 75.5 270.5t200.5 107.5q69 0 111.5 -36t38.5 -91h-87q-1 68 -74 68q-61 0 -106 -56.5t-63 -150.5q67 62 149 62q73 0 114 -37.5t41 -107.5q0 -99 -72.5 -161t-162.5 -62q-80 0 -122.5 52t-42.5 142zM170 175q0 -131 91 -131q62 0 100.5 42t38.5 111 q0 97 -91 97q-75 0 -136 -61q-3 -28 -3 -58z" />
<glyph horiz-adv-x="412" d="M101 0l290 483h-266l11 60h342l-11 -60l-287 -483h-79z" />
<glyph horiz-adv-x="509" d="M73 119q0 61 39.5 105t100.5 57q-78 28 -78 105q0 76 62 123.5t155 47.5q75 0 120 -35t45 -93q0 -108 -121 -148q42 -10 66.5 -41t24.5 -75q0 -87 -68 -133.5t-168 -46.5q-79 0 -128.5 34t-49.5 100zM157 126q0 -82 105 -82q140 0 140 118q0 42 -27 65t-77 23 q-66 0 -103.5 -34t-37.5 -90zM220 389q0 -37 22.5 -58.5t66.5 -21.5q59 0 91 32t32 81q0 39 -25.5 57.5t-65.5 18.5q-50 0 -85.5 -27t-35.5 -82z" />
<glyph horiz-adv-x="501" d="M79 128h87q-1 -44 23.5 -64t56.5 -20q64 0 110 61t62 162q-69 -62 -149 -62q-74 0 -115.5 34t-41.5 102q0 99 71.5 157.5t162.5 58.5q81 0 123 -51.5t42 -142.5q0 -163 -75.5 -270.5t-200.5 -107.5q-73 0 -117.5 37.5t-38.5 105.5zM197 352q0 -88 93 -88q72 0 135 59 q1 14 1 44q0 131 -91 131q-61 0 -99.5 -40t-38.5 -106z" />
<glyph horiz-adv-x="424" d="M139 605q0 114 65 189t161 75q69 0 109 -47t40 -127q0 -115 -65.5 -189.5t-160.5 -74.5q-69 0 -109 47t-40 127zM217 604q0 -58 22 -86.5t59 -28.5q57 0 97 53.5t40 153.5q0 58 -22 86.5t-58 28.5q-58 0 -98 -53.5t-40 -153.5z" />
<glyph horiz-adv-x="246" d="M150 740l12 67l112 53h74l-74 -420h-74l62 353z" />
<glyph horiz-adv-x="365" d="M117 440l9 56q27 21 65 49t58.5 43.5t47 37t40.5 35.5t27.5 31t19 32.5t5.5 32.5q0 54 -62 54q-66 0 -90 -77h-78q14 64 61.5 99.5t116.5 35.5q58 0 93.5 -27.5t35.5 -79.5q0 -61 -43 -106.5t-175 -144.5q-13 -10 -20 -15h194l-9 -56h-296z" />
<glyph horiz-adv-x="386" d="M127 551h78q-1 -33 17.5 -47.5t59.5 -14.5q98 0 98 81q0 59 -87 59h-55l10 58h55q46 0 72 19.5t26 56.5q0 48 -66 48q-36 0 -57.5 -14.5t-33.5 -47.5h-79q15 56 63.5 88t116.5 32q61 0 96.5 -27t35.5 -74q0 -38 -27 -67.5t-75 -40.5q42 -6 61.5 -30t19.5 -56 q0 -62 -56 -102.5t-128 -40.5q-76 0 -114.5 32t-30.5 88z" />
<glyph horiz-adv-x="361" d="M111 516l10 58l190 286h77l-191 -286h113l18 100h73l-18 -100h69l-10 -58h-69l-13 -76h-73l13 76h-189z" />
<glyph horiz-adv-x="360" d="M125 539h78q0 -50 63 -50q47 0 74 27.5t27 82.5q0 68 -64 68q-52 0 -83 -34h-67l40 227h269l-11 -58h-202l-19 -109q38 32 99 32q51 0 83.5 -31.5t32.5 -89.5q0 -80 -57.5 -126.5t-131.5 -46.5q-70 0 -104 28t-27 80z" />
<glyph horiz-adv-x="381" d="M136 584q0 125 62 205t159 80q62 0 96 -26.5t31 -69.5h-78q-7 38 -59 38q-50 0 -81.5 -39t-43.5 -103q51 44 113 44q61 0 95.5 -29.5t34.5 -84.5q0 -76 -57 -122t-131 -46q-68 0 -104.5 40.5t-36.5 112.5zM214 586q0 -97 73 -97q54 0 77.5 28.5t23.5 70.5q0 30 -18 48.5 t-53 18.5q-57 0 -102 -37q-1 -11 -1 -32z" />
<glyph horiz-adv-x="314" d="M132 440l230 362h-201l11 58h274l-11 -58l-227 -362h-76z" />
<glyph horiz-adv-x="390" d="M125 533q0 47 32 80.5t81 44.5q-64 21 -64 81q0 59 49.5 94.5t124.5 35.5q61 0 97.5 -26.5t36.5 -71.5q0 -84 -98 -113q34 -8 54.5 -32.5t20.5 -57.5q0 -68 -53.5 -102.5t-134.5 -34.5q-65 0 -105.5 25.5t-40.5 76.5zM204 547q0 -58 77 -58q42 0 72 19t30 63q0 56 -77 56 q-48 0 -75 -20.5t-27 -59.5zM250 736q0 -51 66 -51q43 0 65 19.5t22 54.5q0 52 -65 52q-37 0 -62.5 -18t-25.5 -57z" />
<glyph horiz-adv-x="381" d="M123 539h78q6 -50 62 -50q50 0 82 39t44 103q-51 -44 -113 -44t-96.5 29.5t-34.5 84.5q0 75 57.5 121.5t130.5 46.5q68 0 105 -40.5t37 -112.5q0 -124 -62.5 -204.5t-159.5 -80.5q-63 0 -98.5 29t-31.5 79zM223 712q0 -30 17.5 -48.5t52.5 -18.5q57 0 103 38q1 10 1 31 q0 97 -74 97q-54 0 -77 -28.5t-23 -70.5z" />
<glyph horiz-adv-x="359" d="M141 630l10 58h119l19 109h61l-19 -109h119l-10 -58h-120l-19 -109h-61l19 109h-118z" />
<glyph horiz-adv-x="359" d="M141 630l10 58h299l-10 -58h-299z" />
<glyph horiz-adv-x="359" d="M131 570l10 58h299l-10 -58h-299zM152 690l10 58h299l-10 -58h-299z" />
<glyph horiz-adv-x="147" d="M87 324l43 170h74l-53 -170h-64z" />
<glyph horiz-adv-x="160" d="M114 473q0 23 18.5 39.5t40.5 16.5q18 0 30 -12t12 -30q0 -23 -18 -39.5t-41 -16.5q-17 0 -29.5 12t-12.5 30z" />
<glyph horiz-adv-x="236" d="M139 595q0 108 54 196t130 144h68q-76 -61 -125 -154.5t-49 -185.5q0 -65 19.5 -128t53.5 -102h-68q-35 35 -59 96.5t-24 133.5z" />
<glyph horiz-adv-x="236" d="M74 365q77 60 125.5 154t48.5 187q0 65 -19.5 127.5t-53.5 101.5h68q36 -36 60 -97t24 -133q0 -107 -54.5 -195.5t-130.5 -144.5h-68z" />
<glyph horiz-adv-x="424" d="M40 45q0 114 65 189t161 75q69 0 109 -47t40 -127q0 -115 -65.5 -189.5t-160.5 -74.5q-69 0 -109 47t-40 127zM118 44q0 -58 22 -86.5t59 -28.5q57 0 97 53.5t40 153.5q0 58 -22 86.5t-58 28.5q-58 0 -98 -53.5t-40 -153.5z" />
<glyph horiz-adv-x="246" d="M51 180l12 67l112 53h74l-74 -420h-74l62 353z" />
<glyph horiz-adv-x="365" d="M18 -120l9 56q27 21 65 49t58.5 43.5t47 37t40.5 35.5t27.5 31t19 32.5t5.5 32.5q0 54 -62 54q-66 0 -90 -77h-78q14 64 61.5 99.5t116.5 35.5q58 0 93.5 -27.5t35.5 -79.5q0 -61 -43 -106.5t-175 -144.5q-13 -10 -20 -15h194l-9 -56h-296z" />
<glyph horiz-adv-x="386" d="M29 -9h78q-1 -33 17.5 -47.5t59.5 -14.5q98 0 98 81q0 59 -87 59h-55l10 58h55q46 0 72 19.5t26 56.5q0 48 -66 48q-36 0 -57.5 -14.5t-33.5 -47.5h-79q15 56 63.5 88t116.5 32q61 0 96.5 -27t35.5 -74q0 -38 -27 -67.5t-75 -40.5q42 -6 61.5 -30t19.5 -56 q0 -62 -56 -102.5t-128 -40.5q-76 0 -114.5 32t-30.5 88z" />
<glyph horiz-adv-x="361" d="M12 -44l10 58l190 286h77l-191 -286h113l18 100h73l-18 -100h69l-10 -58h-69l-13 -76h-73l13 76h-189z" />
<glyph horiz-adv-x="360" d="M26 -21h78q0 -50 63 -50q47 0 74 27.5t27 82.5q0 68 -64 68q-52 0 -83 -34h-67l40 227h269l-11 -58h-202l-19 -109q38 32 99 32q51 0 83.5 -31.5t32.5 -89.5q0 -80 -57.5 -126.5t-131.5 -46.5q-70 0 -104 28t-27 80z" />
<glyph horiz-adv-x="381" d="M37 24q0 125 62 205t159 80q62 0 96 -26.5t31 -69.5h-78q-7 38 -59 38q-50 0 -81.5 -39t-43.5 -103q51 44 113 44q61 0 95.5 -29.5t34.5 -84.5q0 -76 -57 -122t-131 -46q-68 0 -104.5 40.5t-36.5 112.5zM115 26q0 -97 73 -97q54 0 77.5 28.5t23.5 70.5q0 30 -18 48.5 t-53 18.5q-57 0 -102 -37q-1 -11 -1 -32z" />
<glyph horiz-adv-x="314" d="M33 -120l230 362h-201l11 58h274l-11 -58l-227 -362h-76z" />
<glyph horiz-adv-x="390" d="M26 -27q0 47 32 80.5t81 44.5q-64 21 -64 81q0 59 49.5 94.5t124.5 35.5q61 0 97.5 -26.5t36.5 -71.5q0 -84 -98 -113q34 -8 54.5 -32.5t20.5 -57.5q0 -68 -53.5 -102.5t-134.5 -34.5q-65 0 -105.5 25.5t-40.5 76.5zM105 -13q0 -58 77 -58q42 0 72 19t30 63q0 56 -77 56 q-48 0 -75 -20.5t-27 -59.5zM151 176q0 -51 66 -51q43 0 65 19.5t22 54.5q0 52 -65 52q-37 0 -62.5 -18t-25.5 -57z" />
<glyph horiz-adv-x="381" d="M24 -21h78q6 -50 62 -50q50 0 82 39t44 103q-51 -44 -113 -44t-96.5 29.5t-34.5 84.5q0 75 57.5 121.5t130.5 46.5q68 0 105 -40.5t37 -112.5q0 -124 -62.5 -204.5t-159.5 -80.5q-63 0 -98.5 29t-31.5 79zM124 152q0 -30 17.5 -48.5t52.5 -18.5q57 0 103 38q1 10 1 31 q0 97 -74 97q-54 0 -77 -28.5t-23 -70.5z" />
<glyph horiz-adv-x="359" d="M42 70l10 58h119l19 109h61l-19 -109h119l-10 -58h-120l-19 -109h-61l19 109h-118z" />
<glyph horiz-adv-x="359" d="M42 70l10 58h299l-10 -58h-299z" />
<glyph horiz-adv-x="359" d="M32 10l10 58h299l-10 -58h-299zM53 130l10 58h299l-10 -58h-299z" />
<glyph horiz-adv-x="147" d="M-12 -236l43 170h74l-53 -170h-64z" />
<glyph horiz-adv-x="160" d="M15 -87q0 23 18.5 39.5t40.5 16.5q18 0 30 -12t12 -30q0 -23 -18 -39.5t-41 -16.5q-17 0 -29.5 12t-12.5 30z" />
<glyph horiz-adv-x="236" d="M40 35q0 108 54 196t130 144h68q-76 -61 -125 -154.5t-49 -185.5q0 -65 19.5 -128t53.5 -102h-68q-35 35 -59 96.5t-24 133.5z" />
<glyph horiz-adv-x="236" d="M-25 -195q77 60 125.5 154t48.5 187q0 65 -19.5 127.5t-53.5 101.5h68q36 -36 60 -97t24 -133q0 -107 -54.5 -195.5t-130.5 -144.5h-68z" />
<glyph horiz-adv-x="424" d="M111 445q0 114 65 189t161 75q69 0 109 -47t40 -127q0 -115 -65.5 -189.5t-160.5 -74.5q-69 0 -109 47t-40 127zM189 444q0 -58 22 -86.5t59 -28.5q57 0 97 53.5t40 153.5q0 58 -22 86.5t-58 28.5q-58 0 -98 -53.5t-40 -153.5z" />
<glyph horiz-adv-x="246" d="M121 580l12 67l112 53h74l-74 -420h-74l62 353z" />
<glyph horiz-adv-x="365" d="M88 280l9 56q27 21 65 49t58.5 43.5t47 37t40.5 35.5t27.5 31t19 32.5t5.5 32.5q0 54 -62 54q-66 0 -90 -77h-78q14 64 61.5 99.5t116.5 35.5q58 0 93.5 -27.5t35.5 -79.5q0 -61 -43 -106.5t-175 -144.5q-13 -10 -20 -15h194l-9 -56h-296z" />
<glyph horiz-adv-x="386" d="M99 391h78q-1 -33 17.5 -47.5t59.5 -14.5q98 0 98 81q0 59 -87 59h-55l10 58h55q46 0 72 19.5t26 56.5q0 48 -66 48q-36 0 -57.5 -14.5t-33.5 -47.5h-79q15 56 63.5 88t116.5 32q61 0 96.5 -27t35.5 -74q0 -38 -27 -67.5t-75 -40.5q42 -6 61.5 -30t19.5 -56 q0 -62 -56 -102.5t-128 -40.5q-76 0 -114.5 32t-30.5 88z" />
<glyph horiz-adv-x="361" d="M82 356l10 58l190 286h77l-191 -286h113l18 100h73l-18 -100h69l-10 -58h-69l-13 -76h-73l13 76h-189z" />
<glyph horiz-adv-x="360" d="M97 379h78q0 -50 63 -50q47 0 74 27.5t27 82.5q0 68 -64 68q-52 0 -83 -34h-67l40 227h269l-11 -58h-202l-19 -109q38 32 99 32q51 0 83.5 -31.5t32.5 -89.5q0 -80 -57.5 -126.5t-131.5 -46.5q-70 0 -104 28t-27 80z" />
<glyph horiz-adv-x="381" d="M108 424q0 125 62 205t159 80q62 0 96 -26.5t31 -69.5h-78q-7 38 -59 38q-50 0 -81.5 -39t-43.5 -103q51 44 113 44q61 0 95.5 -29.5t34.5 -84.5q0 -76 -57 -122t-131 -46q-68 0 -104.5 40.5t-36.5 112.5zM186 426q0 -97 73 -97q54 0 77.5 28.5t23.5 70.5q0 30 -18 48.5 t-53 18.5q-57 0 -102 -37q-1 -11 -1 -32z" />
<glyph horiz-adv-x="314" d="M103 280l230 362h-201l11 58h274l-11 -58l-227 -362h-76z" />
<glyph horiz-adv-x="390" d="M97 373q0 47 32 80.5t81 44.5q-64 21 -64 81q0 59 49.5 94.5t124.5 35.5q61 0 97.5 -26.5t36.5 -71.5q0 -84 -98 -113q34 -8 54.5 -32.5t20.5 -57.5q0 -68 -53.5 -102.5t-134.5 -34.5q-65 0 -105.5 25.5t-40.5 76.5zM176 387q0 -58 77 -58q42 0 72 19t30 63q0 56 -77 56 q-48 0 -75 -20.5t-27 -59.5zM222 576q0 -51 66 -51q43 0 65 19.5t22 54.5q0 52 -65 52q-37 0 -62.5 -18t-25.5 -57z" />
<glyph horiz-adv-x="381" d="M95 379h78q6 -50 62 -50q50 0 82 39t44 103q-51 -44 -113 -44t-96.5 29.5t-34.5 84.5q0 75 57.5 121.5t130.5 46.5q68 0 105 -40.5t37 -112.5q0 -124 -62.5 -204.5t-159.5 -80.5q-63 0 -98.5 29t-31.5 79zM195 552q0 -30 17.5 -48.5t52.5 -18.5q57 0 103 38q1 10 1 31 q0 97 -74 97q-54 0 -77 -28.5t-23 -70.5z" />
<glyph horiz-adv-x="424" d="M61 165q0 114 65 189t161 75q69 0 109 -47t40 -127q0 -115 -65.5 -189.5t-160.5 -74.5q-69 0 -109 47t-40 127zM139 164q0 -58 22 -86.5t59 -28.5q57 0 97 53.5t40 153.5q0 58 -22 86.5t-58 28.5q-58 0 -98 -53.5t-40 -153.5z" />
<glyph horiz-adv-x="246" d="M72 300l12 67l112 53h74l-74 -420h-74l62 353z" />
<glyph horiz-adv-x="365" d="M39 0l9 56q27 21 65 49t58.5 43.5t47 37t40.5 35.5t27.5 31t19 32.5t5.5 32.5q0 54 -62 54q-66 0 -90 -77h-78q14 64 61.5 99.5t116.5 35.5q58 0 93.5 -27.5t35.5 -79.5q0 -61 -43 -106.5t-175 -144.5q-13 -10 -20 -15h194l-9 -56h-296z" />
<glyph horiz-adv-x="386" d="M49 111h78q-1 -33 17.5 -47.5t59.5 -14.5q98 0 98 81q0 59 -87 59h-55l10 58h55q46 0 72 19.5t26 56.5q0 48 -66 48q-36 0 -57.5 -14.5t-33.5 -47.5h-79q15 56 63.5 88t116.5 32q61 0 96.5 -27t35.5 -74q0 -38 -27 -67.5t-75 -40.5q42 -6 61.5 -30t19.5 -56 q0 -62 -56 -102.5t-128 -40.5q-76 0 -114.5 32t-30.5 88z" />
<glyph horiz-adv-x="361" d="M33 76l10 58l190 286h77l-191 -286h113l18 100h73l-18 -100h69l-10 -58h-69l-13 -76h-73l13 76h-189z" />
<glyph horiz-adv-x="360" d="M47 99h78q0 -50 63 -50q47 0 74 27.5t27 82.5q0 68 -64 68q-52 0 -83 -34h-67l40 227h269l-11 -58h-202l-19 -109q38 32 99 32q51 0 83.5 -31.5t32.5 -89.5q0 -80 -57.5 -126.5t-131.5 -46.5q-70 0 -104 28t-27 80z" />
<glyph horiz-adv-x="381" d="M58 144q0 125 62 205t159 80q62 0 96 -26.5t31 -69.5h-78q-7 38 -59 38q-50 0 -81.5 -39t-43.5 -103q51 44 113 44q61 0 95.5 -29.5t34.5 -84.5q0 -76 -57 -122t-131 -46q-68 0 -104.5 40.5t-36.5 112.5zM136 146q0 -97 73 -97q54 0 77.5 28.5t23.5 70.5q0 30 -18 48.5 t-53 18.5q-57 0 -102 -37q-1 -11 -1 -32z" />
<glyph horiz-adv-x="314" d="M54 0l230 362h-201l11 58h274l-11 -58l-227 -362h-76z" />
<glyph horiz-adv-x="390" d="M47 93q0 47 32 80.5t81 44.5q-64 21 -64 81q0 59 49.5 94.5t124.5 35.5q61 0 97.5 -26.5t36.5 -71.5q0 -84 -98 -113q34 -8 54.5 -32.5t20.5 -57.5q0 -68 -53.5 -102.5t-134.5 -34.5q-65 0 -105.5 25.5t-40.5 76.5zM126 107q0 -58 77 -58q42 0 72 19t30 63q0 56 -77 56 q-48 0 -75 -20.5t-27 -59.5zM172 296q0 -51 66 -51q43 0 65 19.5t22 54.5q0 52 -65 52q-37 0 -62.5 -18t-25.5 -57z" />
<glyph horiz-adv-x="381" d="M45 99h78q6 -50 62 -50q50 0 82 39t44 103q-51 -44 -113 -44t-96.5 29.5t-34.5 84.5q0 75 57.5 121.5t130.5 46.5q68 0 105 -40.5t37 -112.5q0 -124 -62.5 -204.5t-159.5 -80.5q-63 0 -98.5 29t-31.5 79zM145 272q0 -30 17.5 -48.5t52.5 -18.5q57 0 103 38q1 10 1 31 q0 97 -74 97q-54 0 -77 -28.5t-23 -70.5z" />
<glyph horiz-adv-x="755" d="M62 88l333 280l-228 280l52 44l228 -280l333 281l42 -50l-334 -281l229 -281l-52 -44l-229 281l-332 -280z" />
<glyph horiz-adv-x="1000" d="M99 332l11 67h920l-11 -67h-920z" />
<glyph horiz-adv-x="500" d="M99 332l11 67h420l-11 -67h-420z" />
<glyph horiz-adv-x="279" d="M42 332l12 67h240l-12 -67h-240z" />
<glyph horiz-adv-x="340" d="M91 322l12 71l276 200l-17 -96l-195 -141l146 -140l-17 -94z" />
<glyph horiz-adv-x="340" d="M55 122l17 96l195 141l-146 140l17 94l205 -200l-12 -71z" />
<glyph horiz-adv-x="550" d="M91 322l12 71l276 200l-17 -93l-195 -141l146 -140l-17 -97zM301 322l12 71l276 200l-17 -93l-195 -141l146 -140l-17 -97z" />
<glyph horiz-adv-x="550" d="M56 122l16 93l195 141l-145 140l17 97l204 -200l-12 -71zM266 122l16 93l195 141l-145 140l17 97l204 -200l-12 -71z" />
<glyph horiz-adv-x="514" d="M66 127q0 58 26 102.5t62 72t72 53t59.5 60.5t19.5 80h86q3 -49 -13.5 -86.5t-42.5 -59.5t-57.5 -44.5t-58.5 -42t-45 -52t-18 -73.5q0 -42 28 -63.5t76 -21.5q52 0 93.5 31.5t59.5 96.5h93q-21 -90 -91.5 -142.5t-166.5 -52.5q-86 0 -134 37t-48 105zM315 646 q0 29 22 49t50 20q22 0 36 -14.5t14 -36.5q0 -29 -22 -49t-50 -20q-22 0 -36 14.5t-14 36.5z" />
<glyph horiz-adv-x="320" d="M112 0l104 495h62l-70 -495h-96zM214 646q0 29 22 49t50 20q22 0 36.5 -14.5t14.5 -36.5q0 -29 -22 -49t-50 -20q-22 0 -36.5 14.5t-14.5 36.5z" />
<glyph horiz-adv-x="932" d="M60 263q0 232 154 382t404 150q155 0 264.5 -96t109.5 -250q0 -76 -19 -140.5t-49.5 -108.5t-69 -75t-77 -45.5t-74.5 -14.5q-42 0 -67.5 19.5t-27.5 56.5q-85 -76 -176 -76q-62 0 -106 52.5t-44 154.5q0 70 16.5 127.5t44 96t64 65t75 38.5t77.5 12q35 0 67 -17t50 -44 l8 46h80l-72 -410q-5 -30 3.5 -46.5t26.5 -16.5q75 0 129.5 93t54.5 222q0 128 -81 213.5t-227 85.5q-191 0 -321 -130t-130 -328q0 -175 95.5 -269.5t254.5 -94.5q61 0 133.5 12.5t115.5 29.5l-10 -57q-47 -17 -122.5 -30t-141.5 -13q-82 0 -155 25.5t-131 74t-92 128 t-34 178.5zM369 282q0 -75 29.5 -112.5t68.5 -37.5q78 0 146 61v-1l54 306l-2 -10q-44 56 -115 56t-126 -65t-55 -197z" />
<glyph horiz-adv-x="845" d="M95 256l11 60h745l-11 -60h-745z" />
<glyph horiz-adv-x="440" d="M95 256l11 60h340l-11 -60h-340z" />
<glyph horiz-adv-x="309" d="M95 256l11 60h209l-11 -60h-209z" />
<glyph horiz-adv-x="437" d="M111 403q16 69 74.5 111.5t135.5 42.5q70 0 111 -30.5t41 -83.5q0 -42 -15 -75t-37 -51t-47 -36t-46.5 -32t-34.5 -37t-10 -53h-81q-3 43 15 74t46 50t57 37.5t49.5 47t20.5 66.5q0 64 -80 64q-87 0 -113 -95h-86zM163 29q0 25 19 42t44 17q19 0 31.5 -12t12.5 -31 q0 -25 -18.5 -42.5t-44.5 -17.5q-19 0 -31.5 12.5t-12.5 31.5z" />
<glyph horiz-adv-x="437" d="M60 99q0 42 15 75t37 51t47 36t46.5 32t34.5 37t10 53h81q3 -43 -15 -74t-46 -50t-57 -37.5t-49.5 -47t-20.5 -66.5q0 -64 80 -64q87 0 113 95h86q-16 -69 -74.5 -111.5t-135.5 -42.5q-70 0 -111 30.5t-41 83.5zM263 497q0 25 18.5 42.5t44.5 17.5q19 0 31.5 -12.5 t12.5 -31.5q0 -25 -19 -42t-44 -17q-19 0 -31.5 12t-12.5 31z" />
<glyph horiz-adv-x="306" d="M106 29q0 25 19 42t44 17q19 0 31.5 -12t12.5 -31q0 -25 -18.5 -42.5t-44.5 -17.5q-19 0 -31.5 12.5t-12.5 31.5zM150 159l55 384h88l-81 -384h-62z" />
<glyph horiz-adv-x="306" d="M109 0l81 384h62l-55 -384h-88zM188 498q0 25 19 42.5t44 17.5q20 0 32.5 -12t12.5 -32q0 -25 -18.5 -42t-44.5 -17q-20 0 -32.5 12t-12.5 31z" />
<glyph horiz-adv-x="362" d="M124 411q0 61 45.5 103.5t109.5 42.5q50 0 80.5 -30t30.5 -78q0 -61 -46 -103.5t-110 -42.5q-49 0 -79.5 30t-30.5 78zM187 418q0 -25 15.5 -41.5t41.5 -16.5q35 0 59 23.5t24 58.5q0 25 -16 41.5t-42 16.5q-35 0 -58.5 -24t-23.5 -58z" />
<glyph horiz-adv-x="180" d="M123 349l23 194h80l-45 -194h-58z" />
<glyph horiz-adv-x="305" d="M123 349l23 194h80l-45 -194h-58zM248 349l23 194h80l-45 -194h-58z" />
<glyph horiz-adv-x="250" d="M145 473l91 194h82l-103 -194h-70z" />
<glyph horiz-adv-x="370" d="M145 473l91 194h82l-103 -194h-70zM277 473l91 194h82l-103 -194h-70z" />
<glyph horiz-adv-x="250" d="M145 473l103 194h70l-91 -194h-82z" />
<glyph horiz-adv-x="370" d="M145 473l103 194h70l-91 -194h-82zM277 473l103 194h70l-91 -194h-82z" />
<glyph horiz-adv-x="480" d="M95 253l10 60h159l26 148h61l-26 -148h160l-10 -60h-160l-26 -148h-61l26 148h-159z" />
<glyph horiz-adv-x="468" d="M95 253l10 60h368l-10 -60h-368z" />
<glyph horiz-adv-x="468" d="M81 176l11 60h368l-11 -60h-368zM108 331l11 60h368l-11 -60h-368z" />
<glyph horiz-adv-x="301" d="M100 197q0 140 68 255t163 187h73q-96 -79 -157 -200.5t-61 -243.5q0 -83 23 -163t65 -129h-73q-44 46 -72.5 124t-28.5 170z" />
<glyph horiz-adv-x="301" d="M-7 -97q95 79 156.5 200.5t61.5 243.5q0 83 -23 163t-65 129h74q43 -45 71.5 -123t28.5 -170q0 -140 -67.5 -254.5t-162.5 -188.5h-74z" />
<glyph horiz-adv-x="292" d="M103 -97l130 736h152l-10 -54h-71l-111 -628h71l-9 -54h-152z" />
<glyph horiz-adv-x="292" d="M3 -97l9 54h71l111 628h-71l10 54h152l-130 -736h-152z" />
<glyph horiz-adv-x="312" d="M103 244l9 54q81 0 92 69l29 162q8 50 47 80t101 30h23l-9 -54h-11q-29 0 -47.5 -18.5t-22.5 -39.5l-27 -153q-7 -36 -31.5 -65.5t-56.5 -37.5q30 -8 44 -37.5t7 -66.5l-27 -152q-4 -20 8.5 -39t41.5 -19h11l-9 -54h-23q-61 0 -89.5 30.5t-20.5 79.5l29 162q11 69 -68 69 z" />
<glyph horiz-adv-x="312" d="M5 -97l9 54h11q28 0 46.5 19t22.5 39l27 152q7 37 32 66.5t57 37.5q-30 8 -44.5 37.5t-7.5 65.5l27 153q4 21 -8.5 39.5t-41.5 18.5h-11l9 54h23q62 0 90 -30t20 -80l-29 -162q-11 -69 68 -69l-9 -54q-81 0 -92 -69l-29 -162q-8 -49 -47 -79.5t-100 -30.5h-23z" />
<glyph horiz-adv-x="370" d="M15 -31l358 605h82l-358 -605h-82z" />
<glyph horiz-adv-x="370" d="M121 574h73l146 -605h-73z" />
<glyph horiz-adv-x="594" d="M82 118q0 55 35 101.5t92 79.5q-36 49 -36 95q0 65 55 114t134 49q71 0 116 -40t36 -110h-86q7 91 -77 91q-41 0 -69 -24.5t-28 -70.5q0 -50 41 -95l141 -156q32 57 44 131h81q-17 -98 -81 -179l94 -104h-98l-47 52q-82 -67 -179 -67q-78 0 -123 36t-45 97zM165 134 q0 -42 27.5 -66t68.5 -24q77 0 130 50l-150 166l-1 1q-75 -49 -75 -127z" />
<glyph horiz-adv-x="875" d="M105 369l433 368l41 -50l-334 -285h661l-12 -67h-670l237 -288l-53 -45z" />
<glyph horiz-adv-x="875" d="M99 335l12 67h670l-237 288l53 45l303 -367l-433 -368l-41 50l333 285h-660z" />
<glyph horiz-adv-x="815" d="M110 399l433 368l302 -368l-54 -46l-237 287l-117 -668h-67l116 662l-335 -285z" />
<glyph horiz-adv-x="815" d="M101 340l54 46l236 -287l118 668h67l-117 -662l336 285l41 -50l-433 -368z" />
<glyph horiz-adv-x="705" d="M105 142l92 520h520l-12 -67h-408l388 -472l-52 -47l-389 474l-72 -408h-67z" />
<glyph horiz-adv-x="705" d="M62 125l552 470h-404l12 67h520l-92 -520h-67l71 403l-552 -469z" />
<glyph horiz-adv-x="705" d="M118 76l12 67h408l-388 472l53 45l388 -471l72 407h67l-92 -520h-520z" />
<glyph horiz-adv-x="705" d="M93 76l92 520h67l-72 -404l553 470l39 -51l-551 -468h404l-12 -67h-520z" />
<glyph horiz-adv-x="1635" d="M105 369l433 368l41 -50l-334 -285h1421l-12 -67h-1430l237 -288l-53 -45z" />
<glyph horiz-adv-x="1635" d="M99 335l12 67h1430l-237 288l53 45l303 -367l-433 -368l-41 50l333 285h-1420z" />
<glyph horiz-adv-x="177" d="M153 583l39 220h77l-58 -220h-58z" />
<glyph horiz-adv-x="349" d="M183 753l152 138h121l-189 -138h-84z" />
<glyph horiz-adv-x="384" d="M207 891h58q-5 -33 13 -54t58 -21t64 20.5t29 54.5h62q-12 -70 -56.5 -108t-111.5 -38q-66 0 -97 38t-19 108z" />
<glyph horiz-adv-x="469" d="M207 891h78l92 -70l117 70h82l-171 -138h-75z" />
<glyph horiz-adv-x="469" d="M183 753l171 138h75l123 -138h-78l-93 70l-116 -70h-82z" />
</font>
</defs>
</svg>
